Вы используете незарегистрированную версию компонента "Вкладки"!

Поиск

(Free Improvisation) Gustavo Aguilar - Unsettled On An Old Sense Of Place - 2007, FLAC (tracks+.cue), lossless

(Free Improvisation) Gustavo Aguilar - Unsettled On An Old Sense Of Place - 2007, FLAC (tracks+.cue), lossless
Треклист:
Gustavo AguilarUnsettled On An Old Sense Of Place
Жанр: Free Improvisation
Год выпуска диска: 2007
Производитель диска: Henceforth Records 103
Аудио кодек: FLAC
Тип рипа: tracks+.cue
Битрейт аудио: lossless
Источник: СЕТъ
Продолжительность: 47:38
Трэклист:
01 Xochicalco (For Julio) 7:19
Electronics [Llive Processing] - Phil Curtis
Harp [Prepared] - Anne LeBaron
Voice - Nina Eidsheim
02 Contrafactum For Scelsi 4:22
03 Rocamayoha 10:28
Electronics [Llive Processing] - Phil Curtis
Viola - Mary Oliver
04 Dirac's Theory 3:28
05 Suprachiasmatic Nuclei 15:28
Electronics [Llive Processing] - Phil Curtis
Viola - Mary Oliver
06 Wendell's History 6:31
Reeds [Woodwinds] - Alan Lechusza
Voice - Steven Schick
Flute, Electronics [Live], Electric Guitar, Dulcimer, Percussion [Snare Drum, Glockenspiel, Teponaztli] - Gustavo Aguilar

Recording Dates:
Tracks 1, 3, 5: at Studio A, University of California, San Diego
Track 2: at Riot Sound, San Diego
Track 4: at the Northside Ice House, Akron, Ohio
Track 6: bells recorded at Riot Sound, voice at Cossin's Studio, NYC
 
CUE
TITLE "Unsettled On An Old Sense Of Place"
PERFORMER "Gustavo Aguilar"
REM GENRE "Unclassifiable"
REM DISCID 3B0B2A06
FILE "01 - Xochicalco (For Julio).wav" WAVE
TRACK 01 AUDIO
TITLE "Xochicalco (For Julio)"
SONGWRITER "Gustavo Aguilar"
INDEX 01 00:00:00
TRACK 02 AUDIO
TITLE "Contrafacum For Scelsi"
SONGWRITER "Gustavo Aguilar"
INDEX 00 07:17:71
FILE "02 - Contrafacum For Scelsi.wav" WAVE
INDEX 01 00:00:00
TRACK 03 AUDIO
TITLE "RoCaMaYoHa"
SONGWRITER "Gustavo Aguilar"
INDEX 00 04:20:01
FILE "03 - RoCaMaYoHa.wav" WAVE
INDEX 01 00:00:00
TRACK 04 AUDIO
TITLE "Dirac's Theory"
SONGWRITER "Gustavo Aguilar"
INDEX 00 10:26:00
FILE "04 - Dirac's Theory.wav" WAVE
INDEX 01 00:00:00
TRACK 05 AUDIO
TITLE "Suprachiasmatic Nuclei"
SONGWRITER "Gustavo Aguilar"
INDEX 00 03:26:14
FILE "05 - Suprachiasmatic Nuclei.wav" WAVE
INDEX 01 00:00:00
TRACK 06 AUDIO
TITLE "Wendell's History"
SONGWRITER "Gustavo Aguilar"
INDEX 00 15:26:00
FILE "06 - Wendell's History.wav" WAVE
INDEX 01 00:00:00
 
XLD extraction logfile
X Lossless Decoder version 20100518 (120.3)
XLD extraction logfile from 2010-06-26 13:04:12 -0400
Gustavo Aguilar / Unsettled On An Old Sense Of Place
Used drive : MATSHITA DVD-R UJ-868 (revision KB19)
Use cdparanoia mode : YES (CDParanoia III 10.2 engine)
Disable audio cache : OK for the drive with cache less than 2750KB
Make use of C2 pointers : NO
Read offset correction : 102
Max retry count : 100
TOC of the extracted CD
Track | Start | Length | Start sector | End sector
---------------------------------------------------------
1 | 00:00:00 | 07:19:71 | 0 | 32995
2 | 07:19:71 | 04:22:01 | 32996 | 52646
3 | 11:41:72 | 10:28:00 | 52647 | 99746
4 | 22:09:72 | 03:28:14 | 99747 | 115360
5 | 25:38:11 | 15:28:00 | 115361 | 184960
6 | 41:06:11 | 06:32:00 | 184961 | 214360
Track 01
Filename : /Volumes/G-DRIVE Q/kebab/01 - Xochicalco (For Julio).flac
Pre-gap length : 00:02:00
CRC32 hash (test run) : BE5DCD41
CRC32 hash : BE5DCD41
CRC32 hash (skip zero) : 4A067CB6
AccurateRip signature : 51E3D73D
->Track not present in AccurateRip database.
Statistics
Read error : 0
Skipped (treated as error) : 0
Edge jitter error (maybe fixed) : 0
Atom jitter error (maybe fixed) : 0
Drift error (maybe fixed) : 0
Dropped bytes error (maybe fixed) : 0
Duplicated bytes error (maybe fixed) : 0
Inconsistency in error sectors : 0
Track 02
Filename : /Volumes/G-DRIVE Q/kebab/02 - Contrafacum For Scelsi.flac
Pre-gap length : 00:02:00
CRC32 hash (test run) : 10E4AF3D
CRC32 hash : 10E4AF3D
CRC32 hash (skip zero) : 9753F802
AccurateRip signature : E07CA6CD
->Track not present in AccurateRip database.
Statistics
Read error : 0
Skipped (treated as error) : 0
Edge jitter error (maybe fixed) : 0
Atom jitter error (maybe fixed) : 0
Drift error (maybe fixed) : 0
Dropped bytes error (maybe fixed) : 0
Duplicated bytes error (maybe fixed) : 0
Inconsistency in error sectors : 0
Track 03
Filename : /Volumes/G-DRIVE Q/kebab/03 - RoCaMaYoHa.flac
Pre-gap length : 00:02:00
CRC32 hash (test run) : 060DEDD6
CRC32 hash : 060DEDD6
CRC32 hash (skip zero) : 30B91273
AccurateRip signature : 3B9ABC3A
->Track not present in AccurateRip database.
Statistics
Read error : 0
Skipped (treated as error) : 0
Edge jitter error (maybe fixed) : 0
Atom jitter error (maybe fixed) : 0
Drift error (maybe fixed) : 0
Dropped bytes error (maybe fixed) : 0
Duplicated bytes error (maybe fixed) : 0
Inconsistency in error sectors : 0
Track 04
Filename : /Volumes/G-DRIVE Q/kebab/04 - Dirac's Theory.flac
Pre-gap length : 00:02:00
CRC32 hash (test run) : D3E5CC97
CRC32 hash : D3E5CC97
CRC32 hash (skip zero) : 74352ED5
AccurateRip signature : 2CC2A3D4
->Track not present in AccurateRip database.
Statistics
Read error : 0
Skipped (treated as error) : 0
Edge jitter error (maybe fixed) : 0
Atom jitter error (maybe fixed) : 0
Drift error (maybe fixed) : 0
Dropped bytes error (maybe fixed) : 0
Duplicated bytes error (maybe fixed) : 0
Inconsistency in error sectors : 0
Track 05
Filename : /Volumes/G-DRIVE Q/kebab/05 - Suprachiasmatic Nuclei.flac
Pre-gap length : 00:02:00
CRC32 hash (test run) : 521A568A
CRC32 hash : 521A568A
CRC32 hash (skip zero) : CE908D5C
AccurateRip signature : 7BE3F7A8
->Track not present in AccurateRip database.
Statistics
Read error : 0
Skipped (treated as error) : 0
Edge jitter error (maybe fixed) : 0
Atom jitter error (maybe fixed) : 0
Drift error (maybe fixed) : 0
Dropped bytes error (maybe fixed) : 0
Duplicated bytes error (maybe fixed) : 0
Inconsistency in error sectors : 0
Track 06
Filename : /Volumes/G-DRIVE Q/kebab/06 - Wendell's History.flac
Pre-gap length : 00:02:00
CRC32 hash (test run) : EF777B11
CRC32 hash : EF777B11
CRC32 hash (skip zero) : AD21044A
AccurateRip signature : 9D83CD28
->Track not present in AccurateRip database.
Statistics
Read error : 0
Skipped (treated as error) : 0
Edge jitter error (maybe fixed) : 0
Atom jitter error (maybe fixed) : 0
Drift error (maybe fixed) : 0
Dropped bytes error (maybe fixed) : 0
Duplicated bytes error (maybe fixed) : 0
Inconsistency in error sectors : 0
No errors occurred
End of status report
выложил ivan_buratino, спасибо.
Any questions -> support@pro-jazz.com. По всем вопросам пишите -> support@pro-jazz.com
00:58
152
Нет комментариев. Ваш будет первым!