Вы используете незарегистрированную версию компонента "Вкладки"!

Поиск

(Free Improvisation) Francis Wong Trio - Early Abstractions - 2009, FLAC (tracks+.cue) lossless

Треклист:
Francis Wong Trio - Early Abstractions
Жанр: Free Improvisation
Страна-производитель диска: Poland
Год издания диска: 2009
Издатель (лейбл): Estrada Poznanska
Номер по каталогу: MIC02
Страна: Poland
Аудио кодек: FLAC (*.flac)
Тип рипа: tracks+.cue
Битрейт аудио: lossless
Продолжительность: собственный рип с оригинального диска.
Источник (релизер): 1:08:26
Наличие сканов в содержимом раздачи: да
Треклист:
01. Early Abstractions ... for Harry Smith (11:04)
02. Cross Country (8:18)
03. Return to Alishan (6:17)
04. Taylorism (8:17)
05. Swing to Tatsu (6:40)
06. The Animator Suite (22:21)
07. To Poznan With Love (5:27)
 
Лог создания рипа
Exact Audio Copy V0.99 prebeta 5 from 4. May 2009
EAC extraction logfile from 11. January 2011, 22:38
Francis Wong Trio / Early Abstractions
Used drive : TSSTcorpCDDVDW SH-S222A Adapter: 1 ID: 0
Read mode : Secure
Utilize accurate stream : Yes
Defeat audio cache : Yes
Make use of C2 pointers : No
Read offset correction : 6
Overread into Lead-In and Lead-Out : No
Fill up missing offset samples with silence : Yes
Delete leading and trailing silent blocks : No
Null samples used in CRC calculations : Yes
Used interface : Installed external ASPI interface
Gap handling : Appended to previous track
Used output format : User Defined Encoder
Selected bitrate : 768 kBit/s
Quality : High
Add ID3 tag : No
Command line compressor : C:\Tool\Compress\FLAC\flac.exe
Additional command line options : -V -8 -T "ARTIST=%a" -T "TITLE=%t" -T "ALBUM=%g" -T "TRACKNUMBER=%n" -T "GENRE=%m" %s
TOC of the extracted CD
Track | Start | Length | Start sector | End sector
---------------------------------------------------------
1 | 0:00.00 | 11:05.35 | 0 | 49909
2 | 11:05.35 | 8:17.74 | 49910 | 87258
3 | 19:23.34 | 6:17.50 | 87259 | 115583
4 | 25:41.09 | 8:17.44 | 115584 | 152902
5 | 33:58.53 | 6:40.17 | 152903 | 182919
6 | 40:38.70 | 22:20.46 | 182920 | 283465
7 | 62:59.41 | 5:26.52 | 283466 | 307967
Track 1
Filename C:\! RUTRACKER\ru up\Francis Wong Trio - Early Abstractions (2008) [FLAC]\01 - Early Abstractions...for Harry Smith.wav
Pre-gap length 0:00:02.00
Peak level 95.0 %
Track quality 99.9 %
Test CRC A9F5EB89
Copy CRC A9F5EB89
Accurately ripped (confidence 1) [8B2AAB41]
Copy OK
Track 2
Filename C:\! RUTRACKER\ru up\Francis Wong Trio - Early Abstractions (2008) [FLAC]\02 - Cross Country.wav
Peak level 95.0 %
Track quality 100.0 %
Test CRC 4679AEFA
Copy CRC 4679AEFA
Accurately ripped (confidence 1) [CECB6496]
Copy OK
Track 3
Filename C:\! RUTRACKER\ru up\Francis Wong Trio - Early Abstractions (2008) [FLAC]\03 - Return to Alishan.wav
Peak level 95.0 %
Track quality 100.0 %
Test CRC 2BA80FA0
Copy CRC 2BA80FA0
Accurately ripped (confidence 1) [D2F37784]
Copy OK
Track 4
Filename C:\! RUTRACKER\ru up\Francis Wong Trio - Early Abstractions (2008) [FLAC]\04 - Taylorism.wav
Peak level 95.0 %
Track quality 100.0 %
Test CRC 775F975F
Copy CRC 775F975F
Accurately ripped (confidence 1) [847B8AAC]
Copy OK
Track 5
Filename C:\! RUTRACKER\ru up\Francis Wong Trio - Early Abstractions (2008) [FLAC]\05 - Swing to Tatsu.wav
Peak level 95.0 %
Track quality 100.0 %
Test CRC 76789C2F
Copy CRC 76789C2F
Accurately ripped (confidence 1) [DEADDC3B]
Copy OK
Track 6
Filename C:\! RUTRACKER\ru up\Francis Wong Trio - Early Abstractions (2008) [FLAC]\06 - The Animator Suite.wav
Peak level 95.0 %
Track quality 100.0 %
Test CRC 859CC4ED
Copy CRC 859CC4ED
Accurately ripped (confidence 1) [20683DCD]
Copy OK
Track 7
Filename C:\! RUTRACKER\ru up\Francis Wong Trio - Early Abstractions (2008) [FLAC]\07 - To Poznan With Love.wav
Peak level 95.0 %
Track quality 100.0 %
Test CRC AD4DFE6D
Copy CRC AD4DFE6D
Accurately ripped (confidence 1) [21E4BB1F]
Copy OK
All tracks accurately ripped
No errors occurred
End of status report
 
Содержание индексной карты (.CUE)
REM GENRE "Free Jazz"
REM DATE 2008
REM DISCID 52100A07
REM COMMENT "ExactAudioCopy v0.99pb5"
PERFORMER "Francis Wong Trio"
TITLE "Early Abstractions"
FILE "01 - Early Abstractions...for Harry Smith.wav" WAVE
TRACK 01 AUDIO
TITLE "Early Abstractions...for Harry Smith"
PERFORMER "Francis Wong Trio"
FLAGS DCP
INDEX 01 00:00:00
FILE "02 - Cross Country.wav" WAVE
TRACK 02 AUDIO
TITLE "Cross Country"
PERFORMER "Francis Wong Trio"
FLAGS DCP
INDEX 01 00:00:00
FILE "03 - Return to Alishan.wav" WAVE
TRACK 03 AUDIO
TITLE "Return to Alishan"
PERFORMER "Francis Wong Trio"
FLAGS DCP
INDEX 01 00:00:00
FILE "04 - Taylorism.wav" WAVE
TRACK 04 AUDIO
TITLE "Taylorism"
PERFORMER "Francis Wong Trio"
FLAGS DCP
INDEX 01 00:00:00
FILE "05 - Swing to Tatsu.wav" WAVE
TRACK 05 AUDIO
TITLE "Swing to Tatsu"
PERFORMER "Francis Wong Trio"
FLAGS DCP
INDEX 01 00:00:00
FILE "06 - The Animator Suite.wav" WAVE
TRACK 06 AUDIO
TITLE "The Animator Suite"
PERFORMER "Francis Wong Trio"
FLAGS DCP
INDEX 01 00:00:00
FILE "07 - To Poznan With Love.wav" WAVE
TRACK 07 AUDIO
TITLE "To Poznan With Love"
PERFORMER "Francis Wong Trio"
FLAGS DCP
INDEX 01 00:00:00
Доп. информация:
Recorded Live, July 10, 2008 at 1st International Animated Film Festival ANIMATOR, Poznan, POLAND
 
Об альбоме (сборнике)
What an honor to accompany Harry Smith's work in this most significant festival! And what good fortune - double happiness! - that this concert was so expertly captured and edited by Eryk Koztowski and Kasia Palicka - Koztowska. It is certainly a high point in my life to have performed with my friends Tatsu Aoki and Chad Taylor in the Animator Festival, celebrating the long lasting contributions of this art form to our global humanity.
The music in this recording was collectively spontaneously composed in-the-moment-improvised-that evening. And in so many ways it was the environment of the gathering that week in Poznan that provided the inspirational impetus for our creative adventure.
Tatsu, an accomplished film maker, served on the Festival jury, was treated to the breadth and depth of the entries to this firs animation festival in Poznan.
In a rare moment of rest during the festival, the tireless Director (and this CD's producer) Wojciech Juszczak shared with me the story of the historic role of animation artists in Poland's democratic culture - providing the motivation for perhaps the culminating piece of the evening, The Animator Suite.
Great thanks to Wojciech and ESTRADA POZNAN'SKA for this opportunity to share in the celebration, to perform our music, and to enjoy the tremendous hospitality of the audience that evening. It was a joyous moment.
 
Состав
Francis Wong - tenor saxophone
Tatsu Aoki - bass
Chad Taylor - drum
По всем вопросам пишите личное сообщение пользователю M0p94ok.
08:29
81
Нет комментариев. Ваш будет первым!