Вы используете незарегистрированную версию компонента "Вкладки"!

Поиск

(Post Bop, Avant Garde) Roswell Rudd & Mark Dresser - Airwalkers - 2006, FLAC (tracks+.cue) lossless

(Post Bop, Avant Garde) Roswell Rudd & Mark Dresser - Airwalkers - 2006, FLAC (tracks+.cue) lossless
Треклист:
Roswell Rudd & Mark Dresser - Airwalkers
Жанр: Post Bop, Avant Garde
Страна-производитель диска: Portugal
Год издания диска: 2006
Издатель (лейбл): Clean Feed Records
Номер по каталогу: cf 066
Страна: Portugal
Аудио кодек: FLAC (*.flac)
Тип рипа: tracks+.cue
Битрейт аудио: lossless
Продолжительность: 59:01
Источник (релизер): собственный рип с оригинального диска.
Наличие сканов в содержимом раздачи: да
Треклист:
01. Calypso Lite 5:49
02. Airwalkers (Take Two) 9:46
03. Pregant Pauses 3:42
04. Roz MD 10:23
05. Duality 4:55
06. Burst 1:36
07. Don't Blame Me 7:24
08. Lovers Waltz 3:25
09. Airwalkers (Take One) 11:58
 
Лог создания рипа
Exact Audio Copy V0.99 prebeta 5 from 4. May 2009
EAC extraction logfile from 14. January 2011, 18:32
Roswell Rudd & Mark Dresser / Airwalker
Used drive : TSSTcorpCDDVDW SH-S222A Adapter: 1 ID: 0
Read mode : Secure
Utilize accurate stream : Yes
Defeat audio cache : Yes
Make use of C2 pointers : No
Read offset correction : 6
Overread into Lead-In and Lead-Out : No
Fill up missing offset samples with silence : Yes
Delete leading and trailing silent blocks : No
Null samples used in CRC calculations : Yes
Used interface : Installed external ASPI interface
Gap handling : Appended to previous track
Used output format : User Defined Encoder
Selected bitrate : 768 kBit/s
Quality : High
Add ID3 tag : No
Command line compressor : C:\Tool\Compress\FLAC\flac.exe
Additional command line options : -V -8 -T "ARTIST=%a" -T "TITLE=%t" -T "ALBUM=%g" -T "TRACKNUMBER=%n" -T "GENRE=%m" %s
TOC of the extracted CD
Track | Start | Length | Start sector | End sector
---------------------------------------------------------
1 | 0:00.00 | 5:49.37 | 0 | 26211
2 | 5:49.37 | 9:46.18 | 26212 | 70179
3 | 15:35.55 | 3:42.35 | 70180 | 86864
4 | 19:18.15 | 10:23.49 | 86865 | 133638
5 | 29:41.64 | 4:55.30 | 133639 | 155793
6 | 34:37.19 | 1:36.34 | 155794 | 163027
7 | 36:13.53 | 7:24.46 | 163028 | 196373
8 | 43:38.24 | 3:25.12 | 196374 | 211760
9 | 47:03.36 | 11:58.30 | 211761 | 265640
Track 1
Filename C:\! RUTRACKER\ru up\Roswell Rudd & Mark Dresser - Airwalker (2006) [FLAC]\01 - Calypso Lite.wav
Pre-gap length 0:00:02.00
Peak level 98.3 %
Track quality 100.0 %
Test CRC 6CE0C44B
Copy CRC 6CE0C44B
Track not present in AccurateRip database
Copy OK
Track 2
Filename C:\! RUTRACKER\ru up\Roswell Rudd & Mark Dresser - Airwalker (2006) [FLAC]\02 - Airwalkers (Take Two).wav
Peak level 98.3 %
Track quality 100.0 %
Test CRC 2B90DA8B
Copy CRC 2B90DA8B
Track not present in AccurateRip database
Copy OK
Track 3
Filename C:\! RUTRACKER\ru up\Roswell Rudd & Mark Dresser - Airwalker (2006) [FLAC]\03 - Pregnant Pauses.wav
Peak level 97.6 %
Track quality 99.9 %
Test CRC E680B3DE
Copy CRC E680B3DE
Track not present in AccurateRip database
Copy OK
Track 4
Filename C:\! RUTRACKER\ru up\Roswell Rudd & Mark Dresser - Airwalker (2006) [FLAC]\04 - Roz MD.wav
Peak level 99.4 %
Track quality 100.0 %
Test CRC 04ABA97B
Copy CRC 04ABA97B
Track not present in AccurateRip database
Copy OK
Track 5
Filename C:\! RUTRACKER\ru up\Roswell Rudd & Mark Dresser - Airwalker (2006) [FLAC]\05 - Duality.wav
Peak level 98.9 %
Track quality 100.0 %
Test CRC 2C9F8F2D
Copy CRC 2C9F8F2D
Track not present in AccurateRip database
Copy OK
Track 6
Filename C:\! RUTRACKER\ru up\Roswell Rudd & Mark Dresser - Airwalker (2006) [FLAC]\06 - Burst.wav
Peak level 96.8 %
Track quality 100.0 %
Test CRC 4C21041F
Copy CRC 4C21041F
Track not present in AccurateRip database
Copy OK
Track 7
Filename C:\! RUTRACKER\ru up\Roswell Rudd & Mark Dresser - Airwalker (2006) [FLAC]\07 - Don't Blame Me.wav
Peak level 96.6 %
Track quality 99.9 %
Test CRC 9110E85C
Copy CRC 9110E85C
Track not present in AccurateRip database
Copy OK
Track 8
Filename C:\! RUTRACKER\ru up\Roswell Rudd & Mark Dresser - Airwalker (2006) [FLAC]\08 - Lovers Waltz.wav
Peak level 97.5 %
Track quality 100.0 %
Test CRC 5544FD0A
Copy CRC 5544FD0A
Track not present in AccurateRip database
Copy OK
Track 9
Filename C:\! RUTRACKER\ru up\Roswell Rudd & Mark Dresser - Airwalker (2006) [FLAC]\09 - Airwalkers (Take One).wav
Peak level 97.8 %
Track quality 100.0 %
Test CRC 0D6CD061
Copy CRC 0D6CD061
Track not present in AccurateRip database
Copy OK
None of the tracks are present in the AccurateRip database
No errors occurred
End of status report
 
Содержание индексной карты (.CUE)
REM GENRE Jazz
REM DATE 2006
REM DISCID 750DD509
REM COMMENT "ExactAudioCopy v0.99pb5"
PERFORMER "Roswell Rudd & Mark Dresser"
TITLE "Airwalker"
FILE "01 - Calypso Lite.wav" WAVE
TRACK 01 AUDIO
TITLE "Calypso Lite"
PERFORMER "Roswell Rudd & Mark Dresser"
INDEX 01 00:00:00
FILE "02 - Airwalkers (Take Two).wav" WAVE
TRACK 02 AUDIO
TITLE "Airwalkers (Take Two)"
PERFORMER "Roswell Rudd & Mark Dresser"
INDEX 01 00:00:00
FILE "03 - Pregnant Pauses.wav" WAVE
TRACK 03 AUDIO
TITLE "Pregnant Pauses"
PERFORMER "Roswell Rudd & Mark Dresser"
INDEX 01 00:00:00
FILE "04 - Roz MD.wav" WAVE
TRACK 04 AUDIO
TITLE "Roz MD"
PERFORMER "Roswell Rudd & Mark Dresser"
INDEX 01 00:00:00
FILE "05 - Duality.wav" WAVE
TRACK 05 AUDIO
TITLE "Duality"
PERFORMER "Roswell Rudd & Mark Dresser"
INDEX 01 00:00:00
FILE "06 - Burst.wav" WAVE
TRACK 06 AUDIO
TITLE "Burst"
PERFORMER "Roswell Rudd & Mark Dresser"
INDEX 01 00:00:00
FILE "07 - Don't Blame Me.wav" WAVE
TRACK 07 AUDIO
TITLE "Don't Blame Me"
PERFORMER "Roswell Rudd & Mark Dresser"
INDEX 01 00:00:00
FILE "08 - Lovers Waltz.wav" WAVE
TRACK 08 AUDIO
TITLE "Lovers Waltz"
PERFORMER "Roswell Rudd & Mark Dresser"
INDEX 01 00:00:00
FILE "09 - Airwalkers (Take One).wav" WAVE
TRACK 09 AUDIO
TITLE "Airwalkers (Take One)"
PERFORMER "Roswell Rudd & Mark Dresser"
INDEX 01 00:00:00
Доп. информация:
Recorded August 4, 2004 at Nevessa Studio in Saugerties, NY
 
Об альбоме (сборнике)
While duo recordings are hardly rare in jazz, it is hard to think of many trombone-bass meetings. But Roswell Rudd and Mark Dresser are two veterans who are up to the challenge of keeping things interesting, playing with the feeling that only a short discussion took place before each take, using only very basic charts (if any were used at all) as a starting point. "Calypso Lite" is an engaging opener with a slightly loopy air, much like their approach to the one standard, "Don't Blame Me," a song not normally associated with humor. The two takes of "Airwalkers" feature a tense theme with Rudd's ominous muted horn and Dresser's mournful bass, while "Duality" and "Burst" are full-fledged avant-garde jazz excursions. This delightful meeting between two virtuosos will satisfy any jazz fan with open ears.
 
Состав
Mark Dresser - Double Bass
Roswell Rudd - Trombone
По всем вопросам пишите личное сообщение пользователю M0p94ok.
08:28
154
Нет комментариев. Ваш будет первым!