Вы используете незарегистрированную версию компонента "Вкладки"!

Поиск

(Poetry, Free Improvisation,) Francis Wong - Legends & Legacies - 2004, FLAC (tracks+.cue) lossless

Треклист:
Francis Wong - Legends & Legacies
Жанр: Poetry, Free Improvisation,
Страна-производитель диска: USA
Год издания диска: 2004
Издатель (лейбл): Asian Improv
Номер по каталогу: AIR 0060
Страна: USA
Аудио кодек: FLAC (*.flac)
Тип рипа: tracks+.cue
Битрейт аудио: lossless
Продолжительность: 49:38
Источник (релизер): собственный рип с оригинального диска.
Наличие сканов в содержимом раздачи: да
Треклист:
1. Persistence of Vision / Instructions to All Persons
2. Something Grand / Soran Bushi
3. I'm Getting Sentimental Over You
4. Denver Union Station / Soran Bushi
5. Pariah
6. I'm Getting Sentimental Over You (reprise)
 
Лог создания рипа
Exact Audio Copy V0.99 prebeta 5 from 4. May 2009
EAC extraction logfile from 5. February 2011, 1:12
Francis Wong / Legends & Legacies
Used drive : TSSTcorpCDDVDW SH-S222A Adapter: 1 ID: 0
Read mode : Secure
Utilize accurate stream : Yes
Defeat audio cache : Yes
Make use of C2 pointers : No
Read offset correction : 6
Overread into Lead-In and Lead-Out : No
Fill up missing offset samples with silence : Yes
Delete leading and trailing silent blocks : No
Null samples used in CRC calculations : Yes
Used interface : Installed external ASPI interface
Gap handling : Appended to previous track
Used output format : User Defined Encoder
Selected bitrate : 768 kBit/s
Quality : High
Add ID3 tag : No
Command line compressor : C:\Tool\Compress\FLAC\flac.exe
Additional command line options : -V -8 -T "ARTIST=%a" -T "TITLE=%t" -T "ALBUM=%g" -T "TRACKNUMBER=%n" -T "GENRE=%m" %s
TOC of the extracted CD
Track | Start | Length | Start sector | End sector
---------------------------------------------------------
1 | 0:00.30 | 8:00.31 | 30 | 36060
2 | 8:00.61 | 8:26.71 | 36061 | 74081
3 | 16:27.57 | 6:32.45 | 74082 | 103526
4 | 23:00.27 | 12:07.61 | 103527 | 158112
5 | 35:08.13 | 10:37.41 | 158113 | 205928
6 | 45:45.54 | 3:52.54 | 205929 | 223382
Track 1
Filename C:\! RUTRACKER\ru up\Francis Wong - Legends & Legacies (1997) [FLAC]\01 - Persistence of Vision , Instructions to all Persons.wav
Pre-gap length 0:00:02.40
Peak level 99.2 %
Track quality 100.0 %
Test CRC 3EDD2A0E
Copy CRC 3EDD2A0E
Track not present in AccurateRip database
Copy OK
Track 2
Filename C:\! RUTRACKER\ru up\Francis Wong - Legends & Legacies (1997) [FLAC]\02 - Something Grand , Soran Bushi.wav
Pre-gap length 0:00:03.40
Peak level 99.3 %
Track quality 100.0 %
Test CRC F36A9DE9
Copy CRC F36A9DE9
Track not present in AccurateRip database
Copy OK
Track 3
Filename C:\! RUTRACKER\ru up\Francis Wong - Legends & Legacies (1997) [FLAC]\03 - I'm Getting Sentimental Over You.wav
Pre-gap length 0:00:03.40
Peak level 93.7 %
Track quality 100.0 %
Test CRC B5FE0DF0
Copy CRC B5FE0DF0
Track not present in AccurateRip database
Copy OK
Track 4
Filename C:\! RUTRACKER\ru up\Francis Wong - Legends & Legacies (1997) [FLAC]\04 - Denver Union Station , Soran Bushi.wav
Pre-gap length 0:00:03.40
Peak level 99.0 %
Track quality 100.0 %
Test CRC AB448532
Copy CRC AB448532
Track not present in AccurateRip database
Copy OK
Track 5
Filename C:\! RUTRACKER\ru up\Francis Wong - Legends & Legacies (1997) [FLAC]\05 - Pariah.wav
Pre-gap length 0:00:03.40
Peak level 97.4 %
Track quality 99.9 %
Test CRC 7414C835
Copy CRC 7414C835
Track not present in AccurateRip database
Copy OK
Track 6
Filename C:\! RUTRACKER\ru up\Francis Wong - Legends & Legacies (1997) [FLAC]\06 - I'm Getting Sentimental Over You (reprise).wav
Pre-gap length 0:00:03.40
Peak level 81.2 %
Track quality 100.0 %
Test CRC E1A84B53
Copy CRC E1A84B53
Track not present in AccurateRip database
Copy OK
None of the tracks are present in the AccurateRip database
No errors occurred
End of status report
 
Содержание индексной карты (.CUE)
REM GENRE Jazz
REM DATE 1997
REM DISCID 500BA206
REM COMMENT "ExactAudioCopy v0.99pb5"
PERFORMER "Francis Wong"
TITLE "Legends & Legacies"
FILE "01 - Persistence of Vision , Instructions to all Persons.wav" WAVE
TRACK 01 AUDIO
TITLE "Persistence of Vision / Instructions to all Persons"
PERFORMER "Francis Wong"
PREGAP 00:00:30
INDEX 01 00:00:00
TRACK 02 AUDIO
TITLE "Something Grand / Soran Bushi"
PERFORMER "Francis Wong"
INDEX 00 07:57:01
FILE "02 - Something Grand , Soran Bushi.wav" WAVE
INDEX 01 00:00:00
TRACK 03 AUDIO
TITLE "I'm Getting Sentimental Over You"
PERFORMER "Francis Wong"
INDEX 00 08:23:41
FILE "03 - I'm Getting Sentimental Over You.wav" WAVE
INDEX 01 00:00:00
TRACK 04 AUDIO
TITLE "Denver Union Station / Soran Bushi"
PERFORMER "Francis Wong"
INDEX 00 06:29:15
FILE "04 - Denver Union Station , Soran Bushi.wav" WAVE
INDEX 01 00:00:00
TRACK 05 AUDIO
TITLE "Pariah"
PERFORMER "Francis Wong"
INDEX 00 12:04:31
FILE "05 - Pariah.wav" WAVE
INDEX 01 00:00:00
TRACK 06 AUDIO
TITLE "I'm Getting Sentimental Over You (reprise)"
PERFORMER "Francis Wong"
INDEX 00 10:34:11
FILE "06 - I'm Getting Sentimental Over You (reprise).wav" WAVE
INDEX 01 00:00:00
Доп. информация:
Recorded at Mr. Toad's, San Francisco, December 1997
 
Состав
Francis Wong - woodwinds
Antony Brown - drums
Glenn Horiuchi - shamisen
Lawson Fusao Inada - poetry
Mark Izu - bass
Elliot Humberto Kavee - drums and cello
Miya Masaoka - koto
Kevin Mingus - bass
Hafez Modirzadeh - woodwinds
William Roper - tuba
По всем вопросам пишите личное сообщение пользователю M0p94ok.
08:29
126
Нет комментариев. Ваш будет первым!