Поиск

(Free Improvisation, FMP) [CD] Hans Reichel - The Dawn Of Dachsman ... Plus - 1994, FLAC (tracks+.cue), lossless

(Free Improvisation, FMP) [CD] Hans Reichel - The Dawn Of Dachsman ... Plus - 1994, FLAC (tracks+.cue), lossless
Треклист:
Hans Reichel / The Dawn Of Dachsman ... Plus
Guitar And Daxophone Solos
Жанр: Free Improvisation, FMP
Носитель: CD
Страна-производитель диска (релиза): Germany
Год издания: 1994
Издатель (лейбл): FMP
Номер по каталогу: FMP CD 60
Страна исполнителя (группы): Germany
Аудиокодек: FLAC (*.flac)
Тип рипа: tracks+.cue
Битрейт аудио: lossless
Продолжительность: 01:12:10
Источник (релизер): What.cd, merzbow1974
Наличие сканов в содержимом раздачи: нет
The "Dawn Of Dachsman" section (1 - 12) is a reissue of an out-of-print record released by FMP in 1987.
Recorded in May 1987 at the FMP Studio.
The "...Plus" section (13 - 23) has so far been unreleased.
Recorded in Wuppertal in July 1987.
All numbers were recorded as played (except one overdub on #20).
 
Треклист
01. Waiting (I) 5:35
02. The Dawn Of Dachsman (I) 1:05
03. Playing The Table Music (I) 4:19
04. An Old Friend Passes By 3:42
05. Thinking 2:39
06. Dachsman In Berlin (I) 3:42
07. Dachsman Meets The Blues (I) 4:37
08. Watching The Shades (I) 2:57
09. Ymir Shows Up 3:56
10. Return Of The Knödler Show 2:49
11. Forgotten 3:31
12. An Old Friend Passes By Again 2:58
13. Yo 0:20
14. Smoking 4:06
15. Dachsman In Berlin (II) 2:19
16. Playing The Table Music (II) 2:39
17. The Dawn Of Dachsman (II) 2:29
18. Unidentified Dancing Object 1:45
19. Watching The Shades (II) 2:34
20. Dachsman Meets The Blues (II) 1:32
21. Could Be Nice 4:10
22. Something East 3:27
23. Waiting (II) 3:34
 
Logs
 
Лог создания рипа
Exact Audio Copy V0.99 prebeta 5 from 4. May 2009
EAC extraction logfile from 10. September 2011, 2:42
Hans Reichel / The Dawn of Dachsman... Plus
Used drive : Optiarc DVD RW AD-7240S Adapter: 4 ID: 0
Read mode : Secure
Utilize accurate stream : Yes
Defeat audio cache : Yes
Make use of C2 pointers : No
Read offset correction : 48
Overread into Lead-In and Lead-Out : No
Fill up missing offset samples with silence : Yes
Delete leading and trailing silent blocks : No
Null samples used in CRC calculations : Yes
Used interface : Native Win32 interface for Win NT & 2000
Gap handling : Appended to previous track
Used output format : User Defined Encoder
Selected bitrate : 128 kBit/s
Quality : High
Add ID3 tag : Yes
Command line compressor : C:\Programmi\Exact Audio Copy\Flac\flac.exe
Additional command line options : -V -8 -T "artist=%a" -T "title=%t" -T "album=%g" -T "date=%y" -T "tracknumber=%n" -T "genre=%m" %s
TOC of the extracted CD
Track | Start | Length | Start sector | End sector
---------------------------------------------------------
1 | 0:00.00 | 5:40.32 | 0 | 25531
2 | 5:40.32 | 1:08.30 | 25532 | 30661
3 | 6:48.62 | 4:23.53 | 30662 | 50439
4 | 11:12.40 | 3:45.55 | 50440 | 67369
5 | 14:58.20 | 2:44.10 | 67370 | 79679
6 | 17:42.30 | 3:47.65 | 79680 | 96769
7 | 21:30.20 | 4:41.45 | 96770 | 117889
8 | 26:11.65 | 2:59.62 | 117890 | 131376
9 | 29:11.52 | 3:58.48 | 131377 | 149274
10 | 33:10.25 | 2:52.37 | 149275 | 162211
11 | 36:02.62 | 3:35.70 | 162212 | 178406
12 | 39:38.57 | 3:01.63 | 178407 | 192044
13 | 42:40.45 | 0:23.70 | 192045 | 193839
14 | 43:04.40 | 4:05.47 | 193840 | 212261
15 | 47:10.12 | 2:20.50 | 212262 | 222811
16 | 49:30.62 | 2:43.60 | 222812 | 235096
17 | 52:14.47 | 2:33.18 | 235097 | 246589
18 | 54:47.65 | 1:47.67 | 246590 | 254681
19 | 56:35.57 | 2:38.30 | 254682 | 266561
20 | 59:14.12 | 1:35.43 | 266562 | 273729
21 | 60:49.55 | 4:14.20 | 273730 | 292799
22 | 65:04.00 | 3:32.22 | 292800 | 308721
23 | 68:36.22 | 3:34.38 | 308722 | 324809
Track 1
Filename D:\what.cd\Hans Reichel - The Dawn Of Dachsman... Plus - 1994\01 Waiting (I).wav
Pre-gap length 0:00:02.00
Peak level 79.1 %
Track quality 100.0 %
Test CRC 3C9C0105
Copy CRC 3C9C0105
Copy OK
Track 2
Filename D:\what.cd\Hans Reichel - The Dawn Of Dachsman... Plus - 1994\02 The Dawn of Dachsman (I).wav
Pre-gap length 0:00:04.26
Peak level 74.3 %
Track quality 99.8 %
Test CRC C1DFD356
Copy CRC C1DFD356
Copy OK
Track 3
Filename D:\what.cd\Hans Reichel - The Dawn Of Dachsman... Plus - 1994\03 Playing the Table Music (I).wav
Pre-gap length 0:00:03.42
Peak level 75.7 %
Track quality 100.0 %
Test CRC 7D6D5409
Copy CRC 7D6D5409
Copy OK
Track 4
Filename D:\what.cd\Hans Reichel - The Dawn Of Dachsman... Plus - 1994\04 An old friend passes by.wav
Pre-gap length 0:00:04.60
Peak level 83.4 %
Track quality 100.0 %
Test CRC 03FE6815
Copy CRC 03FE6815
Copy OK
Track 5
Filename D:\what.cd\Hans Reichel - The Dawn Of Dachsman... Plus - 1994\05 Thinking.wav
Pre-gap length 0:00:03.44
Peak level 78.9 %
Track quality 100.0 %
Test CRC AA7FCE7B
Copy CRC AA7FCE7B
Copy OK
Track 6
Filename D:\what.cd\Hans Reichel - The Dawn Of Dachsman... Plus - 1994\06 Dachsman in Berlin (I).wav
Pre-gap length 0:00:04.90
Peak level 80.3 %
Track quality 100.0 %
Test CRC 31C8DB68
Copy CRC 31C8DB68
Copy OK
Track 7
Filename D:\what.cd\Hans Reichel - The Dawn Of Dachsman... Plus - 1994\07 Dachsman meets the Blues (I).wav
Pre-gap length 0:00:05.24
Peak level 74.3 %
Track quality 99.9 %
Test CRC 236E9513
Copy CRC 236E9513
Copy OK
Track 8
Filename D:\what.cd\Hans Reichel - The Dawn Of Dachsman... Plus - 1994\08 Watching the Shades (I).wav
Pre-gap length 0:00:04.06
Peak level 76.3 %
Track quality 100.0 %
Test CRC C2AA4646
Copy CRC C2AA4646
Copy OK
Track 9
Filename D:\what.cd\Hans Reichel - The Dawn Of Dachsman... Plus - 1994\09 Ymir shows up.wav
Pre-gap length 0:00:02.26
Peak level 84.6 %
Track quality 100.0 %
Test CRC EF2E6040
Copy CRC EF2E6040
Copy OK
Track 10
Filename D:\what.cd\Hans Reichel - The Dawn Of Dachsman... Plus - 1994\10 Return of the Knцdler Show.wav
Pre-gap length 0:00:02.33
Peak level 82.5 %
Track quality 100.0 %
Test CRC 8BCB10A2
Copy CRC 8BCB10A2
Copy OK
Track 11
Filename D:\what.cd\Hans Reichel - The Dawn Of Dachsman... Plus - 1994\11 Forgotten.wav
Pre-gap length 0:00:03.13
Peak level 71.6 %
Track quality 100.0 %
Test CRC BED0F8F7
Copy CRC BED0F8F7
Copy OK
Track 12
Filename D:\what.cd\Hans Reichel - The Dawn Of Dachsman... Plus - 1994\12 An old friend passes by again.wav
Pre-gap length 0:00:04.33
Peak level 83.5 %
Track quality 100.0 %
Test CRC D255F6EC
Copy CRC D255F6EC
Copy OK
Track 13
Filename D:\what.cd\Hans Reichel - The Dawn Of Dachsman... Plus - 1994\13 Yo.wav
Pre-gap length 0:00:03.84
Peak level 62.9 %
Track quality 100.0 %
Test CRC 1BC720C7
Copy CRC 1BC720C7
Copy OK
Track 14
Filename D:\what.cd\Hans Reichel - The Dawn Of Dachsman... Plus - 1994\14 Smoking.wav
Pre-gap length 0:00:03.84
Peak level 84.5 %
Track quality 100.0 %
Test CRC 1B5A7DE0
Copy CRC 1B5A7DE0
Copy OK
Track 15
Filename D:\what.cd\Hans Reichel - The Dawn Of Dachsman... Plus - 1994\15 Dachsman in Berlin (II).wav
Peak level 63.0 %
Track quality 100.0 %
Test CRC 5C792828
Copy CRC 5C792828
Copy OK
Track 16
Filename D:\what.cd\Hans Reichel - The Dawn Of Dachsman... Plus - 1994\16 Playing the Table Music (II).wav
Pre-gap length 0:00:01.93
Peak level 85.7 %
Track quality 100.0 %
Test CRC 1468E391
Copy CRC 1468E391
Copy OK
Track 17
Filename D:\what.cd\Hans Reichel - The Dawn Of Dachsman... Plus - 1994\17 The Dawn of Dachsman (II).wav
Pre-gap length 0:00:04.89
Peak level 100.0 %
Track quality 100.0 %
Test CRC 6759EF36
Copy CRC 6759EF36
Copy OK
Track 18
Filename D:\what.cd\Hans Reichel - The Dawn Of Dachsman... Plus - 1994\18 Unidentified Dancing Object.wav
Pre-gap length 0:00:03.84
Peak level 81.8 %
Track quality 99.9 %
Test CRC D3DCB701
Copy CRC D3DCB701
Copy OK
Track 19
Filename D:\what.cd\Hans Reichel - The Dawn Of Dachsman... Plus - 1994\19 Watching the Shades (II).wav
Pre-gap length 0:00:02.96
Peak level 99.8 %
Track quality 99.9 %
Test CRC 6ABEA373
Copy CRC 6ABEA373
Copy OK
Track 20
Filename D:\what.cd\Hans Reichel - The Dawn Of Dachsman... Plus - 1994\20 Dachsman meets the Blues (II).wav
Pre-gap length 0:00:04.22
Peak level 70.2 %
Track quality 100.0 %
Test CRC C88883B3
Copy CRC C88883B3
Copy OK
Track 21
Filename D:\what.cd\Hans Reichel - The Dawn Of Dachsman... Plus - 1994\21 Could be nice.wav
Pre-gap length 0:00:03.57
Peak level 97.9 %
Track quality 100.0 %
Test CRC 1A5A8E06
Copy CRC 1A5A8E06
Copy OK
Track 22
Filename D:\what.cd\Hans Reichel - The Dawn Of Dachsman... Plus - 1994\22 Something east.wav
Pre-gap length 0:00:04.06
Peak level 65.1 %
Track quality 100.0 %
Test CRC 044CF0FD
Copy CRC 044CF0FD
Copy OK
Track 23
Filename D:\what.cd\Hans Reichel - The Dawn Of Dachsman... Plus - 1994\23 Waiting (II).wav
Pre-gap length 0:00:05.42
Peak level 99.9 %
Track quality 99.9 %
Test CRC C69BAC26
Copy CRC C69BAC26
Copy OK
No errors occurred
End of status report
 
Содержание индексной карты (.CUE)
REM GENRE Undefined
REM DATE 1994
REM DISCID 5510EA17
REM COMMENT "ExactAudioCopy v0.99pb5"
PERFORMER "Hans Reichel"
TITLE "The Dawn of Dachsman... Plus"
FILE "01 Waiting (I).wav" WAVE
TRACK 01 AUDIO
TITLE "Waiting (I)"
PERFORMER "Hans Reichel"
INDEX 01 00:00:00
TRACK 02 AUDIO
INDEX 00 05:36:12
FILE "02 The Dawn of Dachsman (I).wav" WAVE
INDEX 01 00:00:00
TRACK 03 AUDIO
INDEX 00 01:04:73
FILE "03 Playing the Table Music (I).wav" WAVE
INDEX 01 00:00:00
TRACK 04 AUDIO
INDEX 00 04:19:08
FILE "04 An old friend passes by.wav" WAVE
INDEX 01 00:00:00
TRACK 05 AUDIO
INDEX 00 03:42:22
FILE "05 Thinking.wav" WAVE
INDEX 01 00:00:00
TRACK 06 AUDIO
INDEX 00 02:39:17
FILE "06 Dachsman in Berlin (I).wav" WAVE
INDEX 01 00:00:00
TRACK 07 AUDIO
INDEX 00 03:42:47
FILE "07 Dachsman meets the Blues (I).wav" WAVE
INDEX 01 00:00:00
TRACK 08 AUDIO
INDEX 00 04:37:40
FILE "08 Watching the Shades (I).wav" WAVE
INDEX 01 00:00:00
TRACK 09 AUDIO
INDEX 00 02:57:42
FILE "09 Ymir shows up.wav" WAVE
INDEX 01 00:00:00
TRACK 10 AUDIO
INDEX 00 03:56:23
FILE "10 Return of the Knödler Show.wav" WAVE
INDEX 01 00:00:00
TRACK 11 AUDIO
INDEX 00 02:49:27
FILE "11 Forgotten.wav" WAVE
INDEX 01 00:00:00
TRACK 12 AUDIO
INDEX 00 03:31:45
FILE "12 An old friend passes by again.wav" WAVE
INDEX 01 00:00:00
TRACK 13 AUDIO
INDEX 00 02:58:00
FILE "13 Yo.wav" WAVE
INDEX 01 00:00:00
TRACK 14 AUDIO
INDEX 00 00:20:07
FILE "14 Smoking.wav" WAVE
INDEX 01 00:00:00
FILE "15 Dachsman in Berlin (II).wav" WAVE
TRACK 15 AUDIO
INDEX 01 00:00:00
TRACK 16 AUDIO
INDEX 00 02:18:55
FILE "16 Playing the Table Music (II).wav" WAVE
INDEX 01 00:00:00
TRACK 17 AUDIO
INDEX 00 02:38:68
FILE "17 The Dawn of Dachsman (II).wav" WAVE
INDEX 01 00:00:00
TRACK 18 AUDIO
INDEX 00 02:29:30
FILE "18 Unidentified Dancing Object.wav" WAVE
INDEX 01 00:00:00
TRACK 19 AUDIO
INDEX 00 01:44:70
FILE "19 Watching the Shades (II).wav" WAVE
INDEX 01 00:00:00
TRACK 20 AUDIO
INDEX 00 02:34:13
FILE "20 Dachsman meets the Blues (II).wav" WAVE
INDEX 01 00:00:00
TRACK 21 AUDIO
INDEX 00 01:32:00
FILE "21 Could be nice.wav" WAVE
INDEX 01 00:00:00
TRACK 22 AUDIO
INDEX 00 04:10:15
FILE "22 Something east.wav" WAVE
INDEX 01 00:00:00
TRACK 23 AUDIO
INDEX 00 03:26:65
FILE "23 Waiting (II).wav" WAVE
INDEX 01 00:00:00
 
Лог проверки качества
AUDIOCHECKER v2.0 beta (build 457) - by Dester - opdester@freemail.hu
~~~~~~~~~~~~~~~~~~~~~~~~~~~~~~~~~~
-=== DO NOT EDIT THIS FILE! ===-
Path: ...\[Flac] Hans Reichel - The Dawn Of Dachsman... Plus - 1994
01 -=- 01 Waiting (I).flac -=- CDDA (99%)
02 -=- 02 The Dawn of Dachsman (I).flac -=- CDDA (100%)
03 -=- 03 Playing the Table Music (I).flac -=- CDDA (100%)
04 -=- 04 An old friend passes by.flac -=- CDDA (99%)
05 -=- 05 Thinking.flac -=- CDDA (100%)
06 -=- 06 Dachsman in Berlin (I).flac -=- CDDA (100%)
07 -=- 07 Dachsman meets the Blues (I).flac -=- CDDA (100%)
08 -=- 08 Watching the Shades (I).flac -=- CDDA (100%)
09 -=- 09 Ymir shows up.flac -=- CDDA (100%)
10 -=- 10 Return of the Knodler Show.flac -=- ERROR
11 -=- 11 Forgotten.flac -=- CDDA (100%)
12 -=- 12 An old friend passes by again.flac -=- CDDA (99%)
13 -=- 13 Yo.flac -=- CDDA (100%)
14 -=- 14 Smoking.flac -=- CDDA (100%)
15 -=- 15 Dachsman in Berlin (II).flac -=- CDDA (100%)
16 -=- 16 Playing the Table Music (II).flac -=- CDDA (100%)
17 -=- 17 The Dawn of Dachsman (II).flac -=- CDDA (100%)
18 -=- 18 Unidentified Dancing Object.flac -=- CDDA (100%)
19 -=- 19 Watching the Shades (II).flac -=- CDDA (100%)
20 -=- 20 Dachsman meets the Blues (II).flac -=- CDDA (100%)
21 -=- 21 Could be nice.flac -=- CDDA (100%)
22 -=- 22 Something east.flac -=- CDDA (100%)
23 -=- 23 Waiting (II).flac -=- CDDA (100%)
Summary 99,86% CDDA
259881892
22:06
255
Нет комментариев. Ваш будет первым!