Поиск

(Avant-Garde Jazz, Rock, Experimental) [CD] Sarah Murcia - Never Mind The Future - 2016, FLAC (tracks+.cue), lossless

(Avant-Garde Jazz, Rock, Experimental) [CD] Sarah Murcia - Never Mind The Future - 2016, FLAC (tracks+.cue), lossless
Треклист:
Sarah Murcia / Never Mind The Future
Жанр: Avant-Garde Jazz, Rock, Experimental
Носитель: CD
Страна-производитель диска (релиза): France
Год издания: 2016
Издатель (лейбл): Ayler Records
Номер по каталогу: AYLCD-149
Аудиокодек: FLAC (*.flac)
Тип рипа: tracks+.cue
Битрейт аудио: lossless
Продолжительность: 56:35
Источник (релизер): what
Наличие сканов в содержимом раздачи: нет
Треклист:
01. No Feelings 06:29
02. God Save the Queen 03:01
03. Bodies 02:41
04. Pretty Vacant 04:58
05. New York 07:05
06. Liar 02:43
07. E.M.I. 03:02
08. Holidays in the Sun 05:54
09. Problems 03:50
10. Seventeen 02:15
11. Submission 06:46
12. Anarchy in the U.K. 03:15
13. My Way 04:32
Released February 9, 2016
 
Состав
Sarah Murcia, double-bass, voice, sh101
Benoit Delbecq, piano
Mark Tompkins, voice
Olivier Py, saxophones
Gilles Coronado, electric guitar
Franck Vaillant, drums, percussion
 
Bandcamp
All arrangements by Sarah Murcia except #3 by Gilles Coronado.
Recorded May 2015 at Midilive and mixed Oct. 2015 at Studio Boxson by Philippe Teissier du Cros.
All compositions by Paul Cook/Steve Jones/Glen Matlock/John Lydon except #3, #8 by Paul Cook/Steve Jones/John Lydon/John Beverley and #13 by Jacques Revaux/Claude François.
Produced by Sarah Murcia & Philippe Teissier du Cros.
Executive production by Stéphane Berland.
Sarah Murcia presents “Never Mind the Future”, a variation on the Sex Pistols’ “Never Mind the Bollocks” album. In dissecting and reinterpreting each song, it is not a simple exercise in covering tunes but a will to actually feed on the music of the Sex Pistols in order to express hers. A music that blends jazz, rock and song, where Sarah Murcia is accompanied by her band ‘Caroline’, with the addition of pianist Benoît Delbecq and dancer/crooner Mark Tompkins.
TO BE PLAYED LOUD
 
Лог создания рипа
Exact Audio Copy V1.1 from 23. June 2015
EAC extraction logfile from 10. September 2016, 14:11
Sarah Murcia / Never Mind The Future
Used drive : TEAC DW-224E-C Adapter: 1 ID: 0
Read mode : Secure
Utilize accurate stream : Yes
Defeat audio cache : Yes
Make use of C2 pointers : No
Read offset correction : 102
Overread into Lead-In and Lead-Out : No
Fill up missing offset samples with silence : Yes
Delete leading and trailing silent blocks : No
Null samples used in CRC calculations : Yes
Used interface : Native Win32 interface for Win NT & 2000
Gap handling : Appended to previous track
Used output format : User Defined Encoder
Selected bitrate : 1024 kBit/s
Quality : High
Add ID3 tag : No
Command line compressor : D:\Program Files (x86)\Exact Audio Copy\Flac\flac.exe
Additional command line options : -8 -e -V -T "ARTIST=%artist%" -T "TITLE=%title%" -T "ALBUM=%albumtitle%" -T "DATE=%year%" -T "TRACKNUMBER=%tracknr%" -T "GENRE=%genre%" -T "PERFORMER=%albuminterpret%" -T "COMPOSER=%composer%" %haslyrics%--tag-from-file=LYRICS="%lyricsfile%"%haslyrics% -T "ALBUMARTIST=%albumartist%" -T "DISCNUMBER=%cdnumber%" -T "TOTALDISCS=%totalcds%" -T "TOTALTRACKS=%numtracks%" -T "COMMENT=%comment%" %source% -o %dest%
TOC of the extracted CD
Track | Start | Length | Start sector | End sector
---------------------------------------------------------
1 | 0:00.00 | 6:29.17 | 0 | 29191
2 | 6:29.17 | 3:01.41 | 29192 | 42807
3 | 9:30.58 | 2:41.21 | 42808 | 54903
4 | 12:12.04 | 4:58.13 | 54904 | 77266
5 | 17:10.17 | 7:05.12 | 77267 | 109153
6 | 24:15.29 | 2:43.63 | 109154 | 121441
7 | 26:59.17 | 3:01.65 | 121442 | 135081
8 | 30:01.07 | 5:54.33 | 135082 | 161664
9 | 35:55.40 | 3:50.28 | 161665 | 178942
10 | 39:45.68 | 2:15.63 | 178943 | 189130
11 | 42:01.56 | 6:45.69 | 189131 | 219574
12 | 48:47.50 | 3:15.02 | 219575 | 234201
13 | 52:02.52 | 4:32.00 | 234202 | 254601
Track 1
Filename E:\audio\flac\The Olive Branch - Open Up The Sky [1994] [FLAC]\Sarah Murcia - Never Mind The Future [2015] [FLAC]\01 No Feelings.wav
Pre-gap length 0:00:02.00
Peak level 100.0 %
Extraction speed 8.6 X
Track quality 100.0 %
Test CRC 8FD88C59
Copy CRC 8FD88C59
Track not present in AccurateRip database
Copy OK
Track 2
Filename E:\audio\flac\The Olive Branch - Open Up The Sky [1994] [FLAC]\Sarah Murcia - Never Mind The Future [2015] [FLAC]\02 God Save The Queen.wav
Peak level 100.0 %
Extraction speed 8.8 X
Track quality 100.0 %
Test CRC 045D40F2
Copy CRC 045D40F2
Track not present in AccurateRip database
Copy OK
Track 3
Filename E:\audio\flac\The Olive Branch - Open Up The Sky [1994] [FLAC]\Sarah Murcia - Never Mind The Future [2015] [FLAC]\03 Bodies.wav
Pre-gap length 0:00:01.45
Peak level 89.6 %
Extraction speed 9.3 X
Track quality 100.0 %
Test CRC DE9E1FFC
Copy CRC DE9E1FFC
Track not present in AccurateRip database
Copy OK
Track 4
Filename E:\audio\flac\The Olive Branch - Open Up The Sky [1994] [FLAC]\Sarah Murcia - Never Mind The Future [2015] [FLAC]\04 Pretty Vacant.wav
Peak level 100.0 %
Extraction speed 10.7 X
Track quality 100.0 %
Test CRC E54EEC7D
Copy CRC E54EEC7D
Track not present in AccurateRip database
Copy OK
Track 5
Filename E:\audio\flac\The Olive Branch - Open Up The Sky [1994] [FLAC]\Sarah Murcia - Never Mind The Future [2015] [FLAC]\05 New York.wav
Peak level 100.0 %
Extraction speed 12.1 X
Track quality 100.0 %
Test CRC BE66C6FA
Copy CRC BE66C6FA
Track not present in AccurateRip database
Copy OK
Track 6
Filename E:\audio\flac\The Olive Branch - Open Up The Sky [1994] [FLAC]\Sarah Murcia - Never Mind The Future [2015] [FLAC]\06 Liar.wav
Pre-gap length 0:00:01.00
Peak level 100.0 %
Extraction speed 11.2 X
Track quality 100.0 %
Test CRC A396ADAB
Copy CRC A396ADAB
Track not present in AccurateRip database
Copy OK
Track 7
Filename E:\audio\flac\The Olive Branch - Open Up The Sky [1994] [FLAC]\Sarah Murcia - Never Mind The Future [2015] [FLAC]\07 E.M.I..wav
Pre-gap length 0:00:02.24
Peak level 99.7 %
Extraction speed 11.9 X
Track quality 100.0 %
Test CRC E0AF360F
Copy CRC E0AF360F
Track not present in AccurateRip database
Copy OK
Track 8
Filename E:\audio\flac\The Olive Branch - Open Up The Sky [1994] [FLAC]\Sarah Murcia - Never Mind The Future [2015] [FLAC]\08 Holidays In The Sun.wav
Pre-gap length 0:00:01.61
Peak level 100.0 %
Extraction speed 13.8 X
Track quality 100.0 %
Test CRC FDE9E09F
Copy CRC FDE9E09F
Track not present in AccurateRip database
Copy OK
Track 9
Filename E:\audio\flac\The Olive Branch - Open Up The Sky [1994] [FLAC]\Sarah Murcia - Never Mind The Future [2015] [FLAC]\09 Problems.wav
Peak level 100.0 %
Extraction speed 10.8 X
Track quality 99.9 %
Test CRC 913A266C
Copy CRC 913A266C
Track not present in AccurateRip database
Copy OK
Track 10
Filename E:\audio\flac\The Olive Branch - Open Up The Sky [1994] [FLAC]\Sarah Murcia - Never Mind The Future [2015] [FLAC]\10 Seventeen.wav
Peak level 100.0 %
Extraction speed 12.4 X
Track quality 100.0 %
Test CRC 6C4B650C
Copy CRC 6C4B650C
Track not present in AccurateRip database
Copy OK
Track 11
Filename E:\audio\flac\The Olive Branch - Open Up The Sky [1994] [FLAC]\Sarah Murcia - Never Mind The Future [2015] [FLAC]\11 Submission.wav
Peak level 100.0 %
Extraction speed 14.9 X
Track quality 100.0 %
Test CRC 4278F2AF
Copy CRC 4278F2AF
Track not present in AccurateRip database
Copy OK
Track 12
Filename E:\audio\flac\The Olive Branch - Open Up The Sky [1994] [FLAC]\Sarah Murcia - Never Mind The Future [2015] [FLAC]\12 Anarchy In The U.K..wav
Peak level 100.0 %
Extraction speed 14.2 X
Track quality 100.0 %
Test CRC 5593117A
Copy CRC 5593117A
Track not present in AccurateRip database
Copy OK
Track 13
Filename E:\audio\flac\The Olive Branch - Open Up The Sky [1994] [FLAC]\Sarah Murcia - Never Mind The Future [2015] [FLAC]\13 My Way.wav
Pre-gap length 0:00:03.04
Peak level 99.7 %
Extraction speed 15.1 X
Track quality 100.0 %
Test CRC AF07BE0A
Copy CRC AF07BE0A
Track not present in AccurateRip database
Copy OK
None of the tracks are present in the AccurateRip database
No errors occurred
End of status report
---- CUETools DB Plugin V2.1.6
[CTDB TOCID: 7I78TPpfqROIDB.HAZJoNg3agSA-] disk not present in database
Submit result: 7I78TPpfqROIDB.HAZJoNg3agSA- has been uploaded
==== Log checksum 3248C5B9495DF11285B483F8580170B5770565DB09D0306795CFC763A25EF5CA ====
 
Содержание индексной карты (.CUE)
REM GENRE Jazz
REM DATE 2015
REM DISCID A70D420D
REM COMMENT "ExactAudioCopy v1.1"
PERFORMER "Sarah Murcia"
TITLE "Never Mind The Future"
FILE "01 No Feelings.wav" WAVE
TRACK 01 AUDIO
TITLE "No Feelings"
PERFORMER "Sarah Murcia"
INDEX 01 00:00:00
FILE "02 God Save The Queen.wav" WAVE
TRACK 02 AUDIO
TITLE "God Save The Queen"
PERFORMER "Sarah Murcia"
INDEX 01 00:00:00
TRACK 03 AUDIO
TITLE "Bodies"
PERFORMER "Sarah Murcia"
INDEX 00 02:59:71
FILE "03 Bodies.wav" WAVE
INDEX 01 00:00:00
FILE "04 Pretty Vacant.wav" WAVE
TRACK 04 AUDIO
TITLE "Pretty Vacant"
PERFORMER "Sarah Murcia"
INDEX 01 00:00:00
FILE "05 New York.wav" WAVE
TRACK 05 AUDIO
TITLE "New York"
PERFORMER "Sarah Murcia"
INDEX 01 00:00:00
TRACK 06 AUDIO
TITLE "Liar"
PERFORMER "Sarah Murcia"
INDEX 00 07:04:12
FILE "06 Liar.wav" WAVE
INDEX 01 00:00:00
TRACK 07 AUDIO
TITLE "E.M.I."
PERFORMER "Sarah Murcia"
INDEX 00 02:41:39
FILE "07 E.M.I..wav" WAVE
INDEX 01 00:00:00
TRACK 08 AUDIO
TITLE "Holidays In The Sun"
PERFORMER "Sarah Murcia"
INDEX 00 03:00:04
FILE "08 Holidays In The Sun.wav" WAVE
INDEX 01 00:00:00
FILE "09 Problems.wav" WAVE
TRACK 09 AUDIO
TITLE "Problems"
PERFORMER "Sarah Murcia"
INDEX 01 00:00:00
FILE "10 Seventeen.wav" WAVE
TRACK 10 AUDIO
TITLE "Seventeen"
PERFORMER "Sarah Murcia"
INDEX 01 00:00:00
FILE "11 Submission.wav" WAVE
TRACK 11 AUDIO
TITLE "Submission"
PERFORMER "Sarah Murcia"
INDEX 01 00:00:00
FILE "12 Anarchy In The U.K..wav" WAVE
TRACK 12 AUDIO
TITLE "Anarchy In The U.K."
PERFORMER "Sarah Murcia"
INDEX 01 00:00:00
TRACK 13 AUDIO
TITLE "My Way"
PERFORMER "Sarah Murcia"
INDEX 00 03:11:73
FILE "13 My Way.wav" WAVE
INDEX 01 00:00:00
Другие мои раздачи на трекере
22:06
294
Нет комментариев. Ваш будет первым!