Поиск

(Free Jazz) [CD] Tomasz Sroczynski Trio - Primal - 2016, FLAC (tracks+.cue), lossless

(Free Jazz) [CD] Tomasz Sroczynski Trio - Primal - 2016, FLAC (tracks+.cue), lossless
Tomasz Sroczynski Trio / Primal
Жанр: Free Jazz
Носитель: CD
Страна-производитель диска (релиза): Poland
Год издания: 2016
Издатель (лейбл): For Tune
Номер по каталогу: 0103(009)
Страна исполнителя (группы): Poland
Аудиокодек: FLAC (*.flac)
Тип рипа: tracks+.cue
Битрейт аудио: lossless
Продолжительность: 38:00
Источник (релизер): what.cd (unknown)
Наличие сканов в содержимом раздачи: нет
Треклист:
1 Theme 3:08
2 Sacrifice 2:38
3 NIP 2:01
4 Primitive 4:02
5 Girlie From Another Trib 2:13
6 Mating Song 1:59
7 Day / Night 8:01
8 Invocation 0:41
9 First Snow 3:29
10 Godmother 3:30
11 Restore To Live 1:51
12 Exit Blues 4:27
 
Лог создания рипа
Exact Audio Copy V1.0 beta 4 from 7. December 2014
EAC extraction logfile from 26. October 2016, 20:05
Tomasz Sroczyński Trio / Primal
Used drive : TSSTcorpCDDVDW SH-224DB Adapter: 1 ID: 0
Read mode : Secure
Utilize accurate stream : Yes
Defeat audio cache : Yes
Make use of C2 pointers : No
Read offset correction : 6
Overread into Lead-In and Lead-Out : No
Fill up missing offset samples with silence : Yes
Delete leading and trailing silent blocks : No
Null samples used in CRC calculations : Yes
Used interface : Native Win32 interface for Win NT & 2000
Gap handling : Appended to previous track
Used output format : User Defined Encoder
Selected bitrate : 1024 kBit/s
Quality : High
Add ID3 tag : No
Command line compressor : C:\Program Files (x86)\Exact Audio Copy\Flac\flac.exe
Additional command line options : -8 -V -T "ARTIST=%artist%" -T "TITLE=%title%" -T "ALBUM=%albumtitle%" -T "DATE=%year%" -T "TRACKNUMBER=%tracknr%" -T "GENRE=%genre%" -T "PERFORMER=%albuminterpret%" -T "COMPOSER=%composer%" %haslyrics%--tag-from-file=LYRICS="%lyricsfile%"%haslyrics% -T "ALBUMARTIST=%albumartist%" -T "DISCNUMBER=%cdnumber%" -T "TOTALDISCS=%totalcds%" -T "TOTALTRACKS=%numtracks%" -T "COMMENT=%comment%" %source% -o %dest%
TOC of the extracted CD
Track | Start | Length | Start sector | End sector
---------------------------------------------------------
1 | 0:00.00 | 3:08.00 | 0 | 14099
2 | 3:08.00 | 2:38.00 | 14100 | 25949
3 | 5:46.00 | 2:01.00 | 25950 | 35024
4 | 7:47.00 | 4:02.00 | 35025 | 53174
5 | 11:49.00 | 2:13.00 | 53175 | 63149
6 | 14:02.00 | 1:59.00 | 63150 | 72074
7 | 16:01.00 | 8:01.00 | 72075 | 108149
8 | 24:02.00 | 0:41.00 | 108150 | 111224
9 | 24:43.00 | 3:29.00 | 111225 | 126899
10 | 28:12.00 | 3:30.00 | 126900 | 142649
11 | 31:42.00 | 1:51.00 | 142650 | 150974
12 | 33:33.00 | 4:27.00 | 150975 | 170999
Track 1
Filename C:\Rips\Tomasz Sroczyński Trio\[2016] Primal\01 Theme.wav
Pre-gap length 0:00:02.00
Peak level 93.3 %
Extraction speed 1.6 X
Track quality 100.0 %
Test CRC 672F6E53
Copy CRC 672F6E53
Track not present in AccurateRip database
Copy OK
Track 2
Filename C:\Rips\Tomasz Sroczyński Trio\[2016] Primal\02 Sacrifice.wav
Peak level 100.0 %
Extraction speed 1.4 X
Track quality 99.9 %
Test CRC 85D1E42A
Copy CRC 85D1E42A
Track not present in AccurateRip database
Copy OK
Track 3
Filename C:\Rips\Tomasz Sroczyński Trio\[2016] Primal\03 Nip.wav
Peak level 65.5 %
Extraction speed 1.7 X
Track quality 100.0 %
Test CRC 7176ADB2
Copy CRC 7176ADB2
Track not present in AccurateRip database
Copy OK
Track 4
Filename C:\Rips\Tomasz Sroczyński Trio\[2016] Primal\04 Primitive.wav
Peak level 100.0 %
Extraction speed 1.8 X
Track quality 99.9 %
Test CRC 585ECF89
Copy CRC 585ECF89
Track not present in AccurateRip database
Copy OK
Track 5
Filename C:\Rips\Tomasz Sroczyński Trio\[2016] Primal\05 Girlie From Another Tribe.wav
Peak level 56.5 %
Extraction speed 2.0 X
Track quality 100.0 %
Test CRC 8E338C9A
Copy CRC 8E338C9A
Track not present in AccurateRip database
Copy OK
Track 6
Filename C:\Rips\Tomasz Sroczyński Trio\[2016] Primal\06 Mating Song.wav
Peak level 99.9 %
Extraction speed 2.0 X
Track quality 100.0 %
Test CRC C2D2288A
Copy CRC C2D2288A
Track not present in AccurateRip database
Copy OK
Track 7
Filename C:\Rips\Tomasz Sroczyński Trio\[2016] Primal\07 Day , Night.wav
Peak level 100.0 %
Extraction speed 2.6 X
Track quality 100.0 %
Test CRC 0D73C774
Copy CRC 0D73C774
Track not present in AccurateRip database
Copy OK
Track 8
Filename C:\Rips\Tomasz Sroczyński Trio\[2016] Primal\08 Invocation.wav
Peak level 100.0 %
Extraction speed 1.5 X
Track quality 100.0 %
Test CRC F138C10C
Copy CRC F138C10C
Track not present in AccurateRip database
Copy OK
Track 9
Filename C:\Rips\Tomasz Sroczyński Trio\[2016] Primal\09 First Snow.wav
Peak level 100.0 %
Extraction speed 2.6 X
Track quality 100.0 %
Test CRC 23EBF760
Copy CRC 23EBF760
Track not present in AccurateRip database
Copy OK
Track 10
Filename C:\Rips\Tomasz Sroczyński Trio\[2016] Primal\10 Godmother.wav
Peak level 95.2 %
Extraction speed 2.7 X
Track quality 100.0 %
Test CRC 958E9009
Copy CRC 958E9009
Track not present in AccurateRip database
Copy OK
Track 11
Filename C:\Rips\Tomasz Sroczyński Trio\[2016] Primal\11 Restore to Live.wav
Peak level 100.0 %
Extraction speed 2.4 X
Track quality 100.0 %
Test CRC 6301EC35
Copy CRC 6301EC35
Track not present in AccurateRip database
Copy OK
Track 12
Filename C:\Rips\Tomasz Sroczyński Trio\[2016] Primal\12 Exit Blues.wav
Peak level 100.0 %
Extraction speed 2.9 X
Track quality 100.0 %
Test CRC D9E9759B
Copy CRC D9E9759B
Track not present in AccurateRip database
Copy OK
None of the tracks are present in the AccurateRip database
No errors occurred
End of status report
---- CUETools DB Plugin V2.1.4
[CTDB TOCID: 1QL9hrWKM3IHJo0yB24ZdgDHgd0-] found
Submit result: 1QL9hrWKM3IHJo0yB24ZdgDHgd0- has been confirmed
Track | CTDB Status
1 | (2/2) Accurately ripped
2 | (2/2) Accurately ripped
3 | (2/2) Accurately ripped
4 | (2/2) Accurately ripped
5 | (2/2) Accurately ripped
6 | (2/2) Accurately ripped
7 | (2/2) Accurately ripped
8 | (2/2) Accurately ripped
9 | (2/2) Accurately ripped
10 | (2/2) Accurately ripped
11 | (2/2) Accurately ripped
12 | (2/2) Accurately ripped
==== Log checksum E900BE0C5A4DD9D629A08A4E525FDA9BCB56DBD08A786906BB8BEFF52D273C7A ====
 
Содержание индексной карты (.CUE)
REM GENRE Jazz
REM DATE 2016
REM DISCID A208E80C
REM COMMENT "ExactAudioCopy v1.0b4"
PERFORMER "Tomasz Sroczynski Trio"
TITLE "Primal"
FILE "01 Theme.wav" WAVE
TRACK 01 AUDIO
TITLE "Theme"
PERFORMER "Tomasz Sroczynski Trio"
ISRC PLH161500894
INDEX 01 00:00:00
FILE "02 Sacrifice.wav" WAVE
TRACK 02 AUDIO
TITLE "Sacrifice"
PERFORMER "Tomasz Sroczynski Trio"
ISRC PLH161500895
INDEX 01 00:00:00
FILE "03 Nip.wav" WAVE
TRACK 03 AUDIO
TITLE "Nip"
PERFORMER "Tomasz Sroczynski Trio"
ISRC PLH161500896
INDEX 01 00:00:00
FILE "04 Primitive.wav" WAVE
TRACK 04 AUDIO
TITLE "Primitive"
PERFORMER "Tomasz Sroczynski Trio"
ISRC PLH161500897
INDEX 01 00:00:00
FILE "05 Girlie From Another Tribe.wav" WAVE
TRACK 05 AUDIO
TITLE "Girlie From Another Tribe"
PERFORMER "Tomasz Sroczynski Trio"
ISRC PLH161500898
INDEX 01 00:00:00
FILE "06 Mating Song.wav" WAVE
TRACK 06 AUDIO
TITLE "Mating Song"
PERFORMER "Tomasz Sroczynski Trio"
ISRC PLH161500899
INDEX 01 00:00:00
FILE "07 Day , Night.wav" WAVE
TRACK 07 AUDIO
TITLE "Day / Night"
PERFORMER "Tomasz Sroczynski Trio"
ISRC PLH161500900
INDEX 01 00:00:00
FILE "08 Invocation.wav" WAVE
TRACK 08 AUDIO
TITLE "Invocation"
PERFORMER "Tomasz Sroczynski Trio"
ISRC PLH161500901
INDEX 01 00:00:00
FILE "09 First Snow.wav" WAVE
TRACK 09 AUDIO
TITLE "First Snow"
PERFORMER "Tomasz Sroczynski Trio"
ISRC PLH161500902
INDEX 01 00:00:00
FILE "10 Godmother.wav" WAVE
TRACK 10 AUDIO
TITLE "Godmother"
PERFORMER "Tomasz Sroczynski Trio"
ISRC PLH161500903
INDEX 01 00:00:00
FILE "11 Restore to Live.wav" WAVE
TRACK 11 AUDIO
TITLE "Restore to Live"
PERFORMER "Tomasz Sroczynski Trio"
ISRC PLH161500904
INDEX 01 00:00:00
FILE "12 Exit Blues.wav" WAVE
TRACK 12 AUDIO
TITLE "Exit Blues"
PERFORMER "Tomasz Sroczynski Trio"
ISRC PLH161500905
INDEX 01 00:00:00
 
Об альбоме (сборнике)
Primal is music built upon a single note and its harmonics, with quarter- and half-tone progressions. Aleatoric sketches by the leader, in reaction with three groups of instruments. Each part is a separate existence, which arises anew, gathers momentum, decelerates naturally and dies off. The atonal progressions finally reach their culmination and resolve. It’s youthful energy that reaches the most basic instincts and behaviors. Emotions are the most important element here. (Tomasz Sroczyński)
 
Состав
Double Bass – Max Mucha
Drums – Szymon Gąsiorek
Violin – Tomasz Sroczyński
23:05
289
Нет комментариев. Ваш будет первым!