Поиск

(Avant-Garde Jazz, Free Improvisation) [CD] Barcode Quartet - You're It - 2012, FLAC (tracks+.cue), lossless

(Avant-Garde Jazz, Free Improvisation) [CD] Barcode Quartet - You're It - 2012, FLAC (tracks+.cue), lossless
Barcode Quartet / You're It
Жанр: Avant-Garde Jazz, Free Improvisation
Носитель: CD
Страна-производитель диска (релиза): UK
Год издания: 2012
Издатель (лейбл): Slam Productions
Номер по каталогу: SLAMCD 288
Страна исполнителя (группы): Austria
Аудиокодек: FLAC (*.flac)
Тип рипа: tracks+.cue
Битрейт аудио: lossless
Продолжительность: 58:33
Источник (релизер): what.cd (unknown)
Наличие сканов в содержимом раздачи: нет
Треклист:
1 You're It! 04:45
2 One Point Four Four Five 04:15
3 Staffellauf 04:39
4 Fractured 05:25
5 Oxford Street 06:56
6 Spider Manoeuvres 06:42
7 Alpenglow 05:26
8 Driven 06:06
9 Aaahdrenalin 05:08
10 Wondering 09:31
 
Лог создания рипа
X Lossless Decoder version 20130720 (144.0)
XLD extraction logfile from 2013-08-14 02:08:41 +0400
Barcode Quartet / You're It
Used drive : HL-DT-ST DVDRW GX30N (revision RP09)
Media type : Pressed CD
Ripper mode : XLD Secure Ripper
Disable audio cache : OK for the drive with a cache less than 1375KiB
Make use of C2 pointers : NO
Read offset correction : 6
Max retry count : 100
Gap status : Analyzed, Appended (except HTOA)
TOC of the extracted CD
Track | Start | Length | Start sector | End sector
---------------------------------------------------------
1 | 00:00:00 | 04:43:63 | 0 | 21287
2 | 04:43:63 | 04:12:38 | 21288 | 40225
3 | 08:56:26 | 04:35:52 | 40226 | 60902
4 | 13:32:03 | 05:22:64 | 60903 | 85116
5 | 18:54:67 | 06:54:01 | 85117 | 116167
6 | 25:48:68 | 06:40:01 | 116168 | 146168
7 | 32:28:69 | 05:24:01 | 146169 | 170469
8 | 37:52:70 | 06:04:01 | 170470 | 197770
9 | 43:56:71 | 05:06:01 | 197771 | 220721
10 | 49:02:72 | 09:30:12 | 220722 | 263483
AccurateRip Summary
Disc not found in AccurateRip DB.
All Tracks
Album gain : -4.51 dB
Peak : 1.000000
Statistics
Read error : 0
Jitter error (maybe fixed) : 0
Retry sector count : 0
Damaged sector count : 0
Track 01
Filename : /Users/anch/Music/FLAC/Barcode Quartet - 2012 - You're It [MP3 320]/01 - You're It.mp3
/Users/anch/Music/FLAC/Barcode Quartet - 2012 - You're It [MP3 V0]/01 - You're It.mp3
/Users/anch/Music/FLAC/Barcode Quartet - 2012 - You're It [FLAC]/01 - You're It.flac
Pre-gap length : 00:02:00
Track gain : -3.63 dB
Peak : 1.000000
CRC32 hash (test run) : 826D3627
CRC32 hash : 826D3627
CRC32 hash (skip zero) : 4F3F6713
AccurateRip v1 signature : 7E206967
AccurateRip v2 signature : CB11B89C
->Track not present in AccurateRip database.
Statistics
Read error : 0
Jitter error (maybe fixed) : 0
Retry sector count : 0
Damaged sector count : 0
Track 02
Filename : /Users/anch/Music/FLAC/Barcode Quartet - 2012 - You're It [MP3 320]/02 - One Point Four Four Five.mp3
/Users/anch/Music/FLAC/Barcode Quartet - 2012 - You're It [MP3 V0]/02 - One Point Four Four Five.mp3
/Users/anch/Music/FLAC/Barcode Quartet - 2012 - You're It [FLAC]/02 - One Point Four Four Five.flac
Track gain : 3.27 dB
Peak : 0.753601
CRC32 hash (test run) : 417ACFB3
CRC32 hash : 417ACFB3
CRC32 hash (skip zero) : 95C35CE4
AccurateRip v1 signature : 49DAFC72
AccurateRip v2 signature : 35D031DF
->Track not present in AccurateRip database.
Statistics
Read error : 0
Jitter error (maybe fixed) : 0
Retry sector count : 0
Damaged sector count : 0
Track 03
Filename : /Users/anch/Music/FLAC/Barcode Quartet - 2012 - You're It [MP3 320]/03 - Staffellauf.mp3
/Users/anch/Music/FLAC/Barcode Quartet - 2012 - You're It [MP3 V0]/03 - Staffellauf.mp3
/Users/anch/Music/FLAC/Barcode Quartet - 2012 - You're It [FLAC]/03 - Staffellauf.flac
Track gain : -6.67 dB
Peak : 1.000000
CRC32 hash (test run) : 51A19A8C
CRC32 hash : 51A19A8C
CRC32 hash (skip zero) : EC55CC9D
AccurateRip v1 signature : B8043D18
AccurateRip v2 signature : ECC49FC1
->Track not present in AccurateRip database.
Statistics
Read error : 0
Jitter error (maybe fixed) : 0
Retry sector count : 0
Damaged sector count : 0
Track 04
Filename : /Users/anch/Music/FLAC/Barcode Quartet - 2012 - You're It [MP3 320]/04 - Fractured.mp3
/Users/anch/Music/FLAC/Barcode Quartet - 2012 - You're It [MP3 V0]/04 - Fractured.mp3
/Users/anch/Music/FLAC/Barcode Quartet - 2012 - You're It [FLAC]/04 - Fractured.flac
Track gain : 4.09 dB
Peak : 0.981659
CRC32 hash (test run) : A262C2F1
CRC32 hash : A262C2F1
CRC32 hash (skip zero) : 115B7CAA
AccurateRip v1 signature : 0D3BF0F8
AccurateRip v2 signature : 92AD44E5
->Track not present in AccurateRip database.
Statistics
Read error : 0
Jitter error (maybe fixed) : 0
Retry sector count : 0
Damaged sector count : 0
Track 05
Filename : /Users/anch/Music/FLAC/Barcode Quartet - 2012 - You're It [MP3 320]/05 - Oxford Street.mp3
/Users/anch/Music/FLAC/Barcode Quartet - 2012 - You're It [MP3 V0]/05 - Oxford Street.mp3
/Users/anch/Music/FLAC/Barcode Quartet - 2012 - You're It [FLAC]/05 - Oxford Street.flac
Track gain : -3.19 dB
Peak : 1.000000
CRC32 hash (test run) : 575E7CA6
CRC32 hash : 575E7CA6
CRC32 hash (skip zero) : 8B4CC669
AccurateRip v1 signature : 9FF9D99A
AccurateRip v2 signature : 43BD9311
->Track not present in AccurateRip database.
Statistics
Read error : 0
Jitter error (maybe fixed) : 0
Retry sector count : 0
Damaged sector count : 0
Track 06
Filename : /Users/anch/Music/FLAC/Barcode Quartet - 2012 - You're It [MP3 320]/06 - Spider Manoeuvres.mp3
/Users/anch/Music/FLAC/Barcode Quartet - 2012 - You're It [MP3 V0]/06 - Spider Manoeuvres.mp3
/Users/anch/Music/FLAC/Barcode Quartet - 2012 - You're It [FLAC]/06 - Spider Manoeuvres.flac
Track gain : -3.65 dB
Peak : 1.000000
CRC32 hash (test run) : 0A14249E
CRC32 hash : 0A14249E
CRC32 hash (skip zero) : 195A2992
AccurateRip v1 signature : FD528217
AccurateRip v2 signature : CDFBE1A6
->Track not present in AccurateRip database.
Statistics
Read error : 0
Jitter error (maybe fixed) : 0
Retry sector count : 0
Damaged sector count : 0
Track 07
Filename : /Users/anch/Music/FLAC/Barcode Quartet - 2012 - You're It [MP3 320]/07 - Alpenglow.mp3
/Users/anch/Music/FLAC/Barcode Quartet - 2012 - You're It [MP3 V0]/07 - Alpenglow.mp3
/Users/anch/Music/FLAC/Barcode Quartet - 2012 - You're It [FLAC]/07 - Alpenglow.flac
Track gain : -0.79 dB
Peak : 1.000000
CRC32 hash (test run) : 2B9FE141
CRC32 hash : 2B9FE141
CRC32 hash (skip zero) : 030CD922
AccurateRip v1 signature : F61BBADF
AccurateRip v2 signature : 3C3EB999
->Track not present in AccurateRip database.
Statistics
Read error : 0
Jitter error (maybe fixed) : 0
Retry sector count : 0
Damaged sector count : 0
Track 08
Filename : /Users/anch/Music/FLAC/Barcode Quartet - 2012 - You're It [MP3 320]/08 - Driven.mp3
/Users/anch/Music/FLAC/Barcode Quartet - 2012 - You're It [MP3 V0]/08 - Driven.mp3
/Users/anch/Music/FLAC/Barcode Quartet - 2012 - You're It [FLAC]/08 - Driven.flac
Track gain : -5.53 dB
Peak : 1.000000
CRC32 hash (test run) : 58FE1B67
CRC32 hash : 58FE1B67
CRC32 hash (skip zero) : FE54A987
AccurateRip v1 signature : 2DC46590
AccurateRip v2 signature : 43DCE375
->Track not present in AccurateRip database.
Statistics
Read error : 0
Jitter error (maybe fixed) : 0
Retry sector count : 0
Damaged sector count : 0
Track 09
Filename : /Users/anch/Music/FLAC/Barcode Quartet - 2012 - You're It [MP3 320]/09 - Aaahdrenalin.mp3
/Users/anch/Music/FLAC/Barcode Quartet - 2012 - You're It [MP3 V0]/09 - Aaahdrenalin.mp3
/Users/anch/Music/FLAC/Barcode Quartet - 2012 - You're It [FLAC]/09 - Aaahdrenalin.flac
Track gain : -1.30 dB
Peak : 1.000000
CRC32 hash (test run) : B0C790BD
CRC32 hash : B0C790BD
CRC32 hash (skip zero) : 1ACD2B80
AccurateRip v1 signature : CFD501E7
AccurateRip v2 signature : 526ED659
->Track not present in AccurateRip database.
Statistics
Read error : 0
Jitter error (maybe fixed) : 0
Retry sector count : 0
Damaged sector count : 0
Track 10
Filename : /Users/anch/Music/FLAC/Barcode Quartet - 2012 - You're It [MP3 320]/10 - Wondering.mp3
/Users/anch/Music/FLAC/Barcode Quartet - 2012 - You're It [MP3 V0]/10 - Wondering.mp3
/Users/anch/Music/FLAC/Barcode Quartet - 2012 - You're It [FLAC]/10 - Wondering.flac
Track gain : -6.10 dB
Peak : 1.000000
CRC32 hash (test run) : D69E7AD3
CRC32 hash : D69E7AD3
CRC32 hash (skip zero) : 99E4D9AD
AccurateRip v1 signature : CACA314E
AccurateRip v2 signature : E3EDBB22
->Track not present in AccurateRip database.
Statistics
Read error : 0
Jitter error (maybe fixed) : 0
Retry sector count : 0
Damaged sector count : 0
No errors occurred
End of status report
 
Содержание индексной карты (.CUE)
TITLE "You're It"
PERFORMER "Barcode Quartet"
CATALOG 5028386028826
REM GENRE "Free Jazz"
REM DATE "2012"
REM DISCNUMBER 1
REM TOTALDISCS 1
REM DISCID 880DB90A
REM REPLAYGAIN_ALBUM_GAIN -4.51 dB
REM REPLAYGAIN_ALBUM_PEAK 1.000000
FILE "01 - You're It.flac" WAVE
TRACK 01 AUDIO
TITLE "You're It!"
PERFORMER "Barcode Quartet"
SONGWRITER "Barcode Quartet"
ISRC GBACM1103315
REM REPLAYGAIN_TRACK_GAIN -3.63 dB
REM REPLAYGAIN_TRACK_PEAK 1.000000
INDEX 01 00:00:00
FILE "02 - One Point Four Four Five.flac" WAVE
TRACK 02 AUDIO
TITLE "One Point Four Four Five"
PERFORMER "Barcode Quartet"
SONGWRITER "Barcode Quartet"
ISRC GBACM1103316
REM REPLAYGAIN_TRACK_GAIN 3.27 dB
REM REPLAYGAIN_TRACK_PEAK 0.753601
INDEX 01 00:00:00
FILE "03 - Staffellauf.flac" WAVE
TRACK 03 AUDIO
TITLE "Staffellauf"
PERFORMER "Barcode Quartet"
SONGWRITER "Barcode Quartet"
ISRC GBACM1103317
REM REPLAYGAIN_TRACK_GAIN -6.67 dB
REM REPLAYGAIN_TRACK_PEAK 1.000000
INDEX 01 00:00:00
FILE "04 - Fractured.flac" WAVE
TRACK 04 AUDIO
TITLE "Fractured"
PERFORMER "Barcode Quartet"
SONGWRITER "Barcode Quartet"
ISRC GBACM1103318
REM REPLAYGAIN_TRACK_GAIN 4.09 dB
REM REPLAYGAIN_TRACK_PEAK 0.981659
INDEX 01 00:00:00
FILE "05 - Oxford Street.flac" WAVE
TRACK 05 AUDIO
TITLE "Oxford Street"
PERFORMER "Barcode Quartet"
SONGWRITER "Barcode Quartet"
ISRC GBACM1103319
REM REPLAYGAIN_TRACK_GAIN -3.19 dB
REM REPLAYGAIN_TRACK_PEAK 1.000000
INDEX 01 00:00:00
FILE "06 - Spider Manoeuvres.flac" WAVE
TRACK 06 AUDIO
TITLE "Spider Manoeuvres"
PERFORMER "Barcode Quartet"
SONGWRITER "Barcode Quartet"
ISRC GBACM1103320
REM REPLAYGAIN_TRACK_GAIN -3.65 dB
REM REPLAYGAIN_TRACK_PEAK 1.000000
INDEX 01 00:00:00
FILE "07 - Alpenglow.flac" WAVE
TRACK 07 AUDIO
TITLE "Alpenglow"
PERFORMER "Barcode Quartet"
SONGWRITER "Barcode Quartet"
ISRC GBACM1103321
REM REPLAYGAIN_TRACK_GAIN -0.79 dB
REM REPLAYGAIN_TRACK_PEAK 1.000000
INDEX 01 00:00:00
FILE "08 - Driven.flac" WAVE
TRACK 08 AUDIO
TITLE "Driven"
PERFORMER "Barcode Quartet"
SONGWRITER "Barcode Quartet"
ISRC GBACM1103322
REM REPLAYGAIN_TRACK_GAIN -5.53 dB
REM REPLAYGAIN_TRACK_PEAK 1.000000
INDEX 01 00:00:00
FILE "09 - Aaahdrenalin.flac" WAVE
TRACK 09 AUDIO
TITLE "Aaahdrenalin"
PERFORMER "Barcode Quartet"
SONGWRITER "Barcode Quartet"
ISRC GBACM1103323
REM REPLAYGAIN_TRACK_GAIN -1.30 dB
REM REPLAYGAIN_TRACK_PEAK 1.000000
INDEX 01 00:00:00
FILE "10 - Wondering.flac" WAVE
TRACK 10 AUDIO
TITLE "Wondering"
PERFORMER "Barcode Quartet"
SONGWRITER "Barcode Quartet"
ISRC GBACM1103324
REM REPLAYGAIN_TRACK_GAIN -6.10 dB
REM REPLAYGAIN_TRACK_PEAK 1.000000
INDEX 01 00:00:00
 
Об исполнителе (группе)
Annette Giesriegl is a dynamic, exciting and creative vocalist who is based in Graz/Austria and works in the field of jazz and improvised music. Her studies of overtone singing, throat singing, Indian music with an emphasis on Indian vocal techniques, the use of electronics and other extended vocal techniques give line to the textural play of piano, violin and drums. London based musician Alison Blunt has consuming interests in making music in the moment and in interdisciplinary explorations. Elisabeth Harnik is an accomplished classical pianist and composer based in the County of Styria/Austria who´s consistently proved that academic training is no impediment to spontaneity. Harnik and Blunt - both representing the generation of improvisers who didn´t come to the discipline via jazz - work within an electro-acoustic inspired sound-world, using unique preparations and extended techniques. Graz based musician and media artist Josef Klammer has worked continuously developing his instruments and sound since the middle of the 80´s. His drums and subtle electronics bring expressive punctuation and a huge range of colour, providing the musical glue to the ensemble.
 
Об альбоме (сборнике)
Recorded at Kunsthaltestelle Streckhammerhaus,
Frohnleiten, Austria, July 1st, 2011.
The Barcode Quartet’s You’re It is a meeting of musical minds from the Graz and London new music scenes, Alison Blunt (violin) and Elisabeth Harnik (piano) representing the latter, Annette Giesriegl (vocals) and Josef Klammer (drums) the former. Recorded live in Frohnleiten near Graz, the foursome’s interplay is intricately balanced, inherently exciting without overt melodrama, often ending in sudden hushes. So imbricated are the improvisations that it can be difficult to distinguish individual instruments. Ranging in mood from quiet ‘chamber jazz’ to extroverted power-rock pulsing, tracks like “Oxford Street”, “Alpenglow”, “Driver”, “Aaahdrenalin” and “Wondering” all realize an immensely satisfying musical gestalt. - New York Jazz Record.
 
Состав
Drums, Electronics – Josef Klammer
Piano – Elisabeth Harnik
Violin – Alison Blunt
Voice, Electronics – Annette Giesriegl
23:07
283
Нет комментариев. Ваш будет первым!