Вы используете незарегистрированную версию компонента "Вкладки"!

Поиск

(Free Improvisation, Experimental) Rodrigues-Rodrigues-Paiuk-Oliveira - Ficta - 2002, FLAC (tracks+.cue), lossless

(Free Improvisation, Experimental) Rodrigues-Rodrigues-Paiuk-Oliveira - Ficta - 2002, FLAC (tracks+.cue), lossless
Треклист:
Rodrigues-Rodrigues-Paiuk-Oliveira - Ficta
Жанр: Free Improvisation, Experimental
Страна-производитель диска: Portugal
Год издания диска: 2002
Издатель (лейбл): creative sources
Номер по каталогу: cs 005
Аудиокодек: FLAC (*.flac)
Тип рипа: tracks+.cue
Битрейт аудио: lossless
Продолжительность: 46:39
Источник (релизер): собственный рип с оригинального диска
Наличие сканов в содержимом раздачи: да
Треклист:
01. Nihil 00.01 9:06
02. Nihil 00.02 7:37
03. Nihil 00.03 7:24
04. Nihil 00.04 7:08
05. Nihil 00.05 8:27
06. Nihil 00.06 6:51
 
Лог создания рипа
Exact Audio Copy V1.0 beta 2 from 29. April 2011
EAC extraction logfile from 29. December 2011, 20:29
Ernesto Rodrigues / Ficta
Used drive : TSSTcorpCDDVDW SH-S222A Adapter: 1 ID: 0
Read mode : Secure
Utilize accurate stream : Yes
Defeat audio cache : Yes
Make use of C2 pointers : No
Read offset correction : 6
Overread into Lead-In and Lead-Out : No
Fill up missing offset samples with silence : Yes
Delete leading and trailing silent blocks : No
Null samples used in CRC calculations : Yes
Used interface : Native Win32 interface for Win NT & 2000
Gap handling : Appended to previous track
Used output format : User Defined Encoder
Selected bitrate : 896 kBit/s
Quality : High
Add ID3 tag : No
Command line compressor : C:\Tool\CD\EAC10\FLAC\FLAC.EXE
Additional command line options : -6 -V -T "ARTIST=%artist%" -T "TITLE=%title%" -T "ALBUM=%albumtitle%" -T "DATE=%year%" -T "TRACKNUMBER=%tracknr%" -T "GENRE=%genre%" -T "COMMENT=%comment%" -T "BAND=%albuminterpret%" -T "COMPOSER=%composer%" %haslyrics%--ta
TOC of the extracted CD
Track | Start | Length | Start sector | End sector
---------------------------------------------------------
1 | 0:00.55 | 9:06.39 | 55 | 41043
2 | 9:07.19 | 7:37.27 | 41044 | 75345
3 | 16:44.46 | 7:24.60 | 75346 | 108705
4 | 24:09.31 | 7:08.56 | 108706 | 140861
5 | 31:18.12 | 8:27.24 | 140862 | 178910
6 | 39:45.36 | 6:51.57 | 178911 | 209792
Track 1
Filename C:\! UPLOAD\Rodrigues-Rodrigues-Paiuk-Oliveira - Ficta (2002) [FLAC] {creative sources}\01 - Nihil 00.01.wav
Pre-gap length 0:00:02.55
Peak level 97.8 %
Extraction speed 3.3 X
Track quality 100.0 %
Test CRC A70C6B73
Copy CRC A70C6B73
Track not present in AccurateRip database
Copy OK
Track 2
Filename C:\! UPLOAD\Rodrigues-Rodrigues-Paiuk-Oliveira - Ficta (2002) [FLAC] {creative sources}\02 - Nihil 00.02.wav
Pre-gap length 0:00:04.35
Peak level 97.9 %
Extraction speed 3.4 X
Track quality 100.0 %
Test CRC E50AEFE7
Copy CRC E50AEFE7
Track not present in AccurateRip database
Copy OK
Track 3
Filename C:\! UPLOAD\Rodrigues-Rodrigues-Paiuk-Oliveira - Ficta (2002) [FLAC] {creative sources}\03 - Nihil 00.03.wav
Pre-gap length 0:00:04.35
Peak level 97.9 %
Extraction speed 3.5 X
Track quality 100.0 %
Test CRC C8664055
Copy CRC C8664055
Track not present in AccurateRip database
Copy OK
Track 4
Filename C:\! UPLOAD\Rodrigues-Rodrigues-Paiuk-Oliveira - Ficta (2002) [FLAC] {creative sources}\04 - Nihil 00.04.wav
Pre-gap length 0:00:04.35
Peak level 81.8 %
Extraction speed 3.3 X
Track quality 100.0 %
Test CRC 3B2E1279
Copy CRC 3B2E1279
Track not present in AccurateRip database
Copy OK
Track 5
Filename C:\! UPLOAD\Rodrigues-Rodrigues-Paiuk-Oliveira - Ficta (2002) [FLAC] {creative sources}\05 - Nihil 00.05.wav
Pre-gap length 0:00:04.35
Peak level 97.6 %
Extraction speed 3.5 X
Track quality 100.0 %
Test CRC 0A0B9816
Copy CRC 0A0B9816
Track not present in AccurateRip database
Copy OK
Track 6
Filename C:\! UPLOAD\Rodrigues-Rodrigues-Paiuk-Oliveira - Ficta (2002) [FLAC] {creative sources}\06 - Nihil 00.06.wav
Pre-gap length 0:00:04.35
Peak level 97.9 %
Extraction speed 3.3 X
Track quality 100.0 %
Test CRC B7E1A0F2
Copy CRC B7E1A0F2
Track not present in AccurateRip database
Copy OK
None of the tracks are present in the AccurateRip database
No errors occurred
End of status report
==== Log checksum 2C82ADDAE4B50D6D61A9BEEC6CEC4BE570AA7021D32549C6A832F59F522465E6 ====
 
Содержание индексной карты (.CUE)
REM GENRE Avantgarde
REM DATE 2002
REM DISCID 4B0AED06
REM COMMENT "ExactAudioCopy v1.0b2"
PERFORMER "Ernesto Rodrigues"
TITLE "Ficta"
FILE "01 - Nihil 00.01.wav" WAVE
TRACK 01 AUDIO
TITLE "Nihil 00.01"
PERFORMER "Ernesto Rodrigues"
PREGAP 00:00:55
INDEX 01 00:00:00
TRACK 02 AUDIO
TITLE "Nihil 00.02"
PERFORMER "Ernesto Rodrigues"
INDEX 00 09:02:04
FILE "02 - Nihil 00.02.wav" WAVE
INDEX 01 00:00:00
TRACK 03 AUDIO
TITLE "Nihil 00.03"
PERFORMER "Ernesto Rodrigues"
INDEX 00 07:32:67
FILE "03 - Nihil 00.03.wav" WAVE
INDEX 01 00:00:00
TRACK 04 AUDIO
TITLE "Nihil 00.04"
PERFORMER "Ernesto Rodrigues"
INDEX 00 07:20:25
FILE "04 - Nihil 00.04.wav" WAVE
INDEX 01 00:00:00
TRACK 05 AUDIO
TITLE "Nihil 00.05"
PERFORMER "Ernesto Rodrigues"
INDEX 00 07:04:21
FILE "05 - Nihil 00.05.wav" WAVE
INDEX 01 00:00:00
TRACK 06 AUDIO
TITLE "Nihil 00.06"
PERFORMER "Ernesto Rodrigues"
INDEX 00 08:22:64
FILE "06 - Nihil 00.06.wav" WAVE
INDEX 01 00:00:00
Доп. информация:
Recorded at Tcha Tcha Tcha Studios, Lisbon, Portugal on December 19, 2001.
 
Об альбоме by Frank Rubolino
After an aseptic and extremely quiet opening, the quartet on «Ficta» expands its horizons into the ethereal world of sound creation. The two Rodrigues string players and the drummer Oliveira are Portuguese musicians, while pianist Paiuk is Argentinean; thus, they bring forth new music concepts from diverse cultures. Their set consists of six experiments in music having an atonal base and fully unstructured composition. The session proceeds tentatively with each artist testing the atmosphere with stark interjections or quiet musings. This in turn invokes periods of spontaneous blurts of temporal duration, which dissolve back to the eerie world of velvety noise. The fifth member of the group is silence.
There are periods of prolonged quietude followed by agitated manipulation of tonal output with bare otic registration. Paiuk is the most outspoken of the group. He intermittently explodes with a short burst on the piano before retreating to the nether region where they all seem to reside and spring forth. “Nihil 00.05” has examples of these outbursts, albeit constricted periods. Ernesto Rodrigues adopts abrupt plucking techniques to make his violin or viola an equal partner in this séance, while Guilherme Rodrigues bows the cello with irregular strokes of sonar-detecting quality.
Oliveira’s bells and chimes fall right in line. They speak the language of whales where high pitches and curt tones sing out in search of a response. Guilherme Rodrigues also introduces the pocket trumpet into the equation, but these periods as well are totally devoid of flow. The liner notes quote the expression “esthetics of silence”, which is descriptive of much of the disc. Perseverance will allow one to find the hidden gems buried within this music.
 
Состав
Ernesto Rodrigues - violin, viola
Guilherme Rodrigues - cello, pocket trumpet
Gabriel Paiuk - piano
José Oliveira - percussion
Any questions -> support@pro-jazz.com. По всем вопросам пишите -> support@pro-jazz.com
20:28
158
Нет комментариев. Ваш будет первым!