Вы используете незарегистрированную версию компонента "Вкладки"!

Поиск

(Avant-Garde Jazz, Progressive Jazz) Glen Hall & Gil Evans - The Mother Of The Book - 2009, FLAC (tracks+.cue), lossless

(Avant-Garde Jazz, Progressive Jazz) Glen Hall & Gil Evans - The Mother Of The Book - 2009, FLAC (tracks+.cue), lossless
Треклист:
•Glen Hall & Gil Evans - The Mother Of The Book•
Жанр: Avant-Garde Jazz, Progressive Jazz
Страна-производитель диска: Россия
Год издания диска: 2009
Издатель (лейбл): JAZZO Sophia
Номер по каталогу: 001
Аудиокодек: FLAC (*.flac)
Тип рипа: tracks+.cue
Битрейт аудио: lossless
Продолжительность: 00:42:04
Источник (релизер): Рип с диска.
Наличие сканов в содержимом раздачи: да
Треклист:
01. Kikue
02. Old Woman River
03. The Mother Of The Book
04. The Folk
05. Muddy Waters
Personnel:
Glen Hall - ts,ss,Bcl
Gil Evans - p
Chase Sanborn - tp,flh
Eugene Amaro - fl,Bfl
Harvey Saltzman - basson,contrabasson
Lawrence Chemey - english horn
Trevor Tureski - vibes
Stacy Hersch - synthesizer
Bob Murphy - synthesizer
David Piltch - b
Terry Clarke - dr
Trichy Sankaran - mrdangam
Nexus group: Bob Becker, Robin Engleman, Russell Hartenberger, John Wyre.Записи 1985 года.
 
Лог создания рипа
Exact Audio Copy V1.0 beta 3 from 29. August 2011
Отчёт EAC об извлечении, выполненном 29. декабря 2011, 18:11
Glen Hall & Gil Evans / The Mother Of The Book
Дисковод: TSSTcorpCDDVDW SH-S223C Adapter: 5 ID: 0
Режим чтения : Достоверность
Использование точного потока : Да
Отключение кэша аудио : Да
Использование указателей C2 : Нет
Коррекция смещения при чтении : 697
Способность читать области Lead-in и Lead-out : Нет
Заполнение пропущенных сэмплов тишиной : Да
Удаление блоков с тишиной в начале и конце : Нет
При вычислениях CRC использовались нулевые сэмплы : Да
Интерфейс : Установленный внешний ASPI-интерфейс
Обработка зазоров : Добавлено к предыдущему треку
Выходной формат : Пользовательский кодировщик
Выбранный битрейт : 128 kBit/s
Качество : Высокий
Добавление ID3-тега : Нет
Утилита сжатия : C:\Program Files\Exact Audio Copy\Flac\flac.exe
Дополнительные параметры : -V -8 -T "Genre=%genre%" -T "Artist=%artist%" -T "Title=%title%" -T "Album=%albumtitle%" -T "Date=%year%" -T "Tracknumber=%tracknr%" -T "Comment=%comment%" %source%
TOC извлечённого CD
Трек | Старт | Длительность | Начальный сектор | Конечный сектор
---------------------------------------------------------------------
1 | 0:00.00 | 13:56.12 | 0 | 62711
2 | 13:56.12 | 5:31.50 | 62712 | 87586
3 | 19:27.62 | 8:20.38 | 87587 | 125124
4 | 27:48.25 | 5:45.00 | 125125 | 150999
5 | 33:33.25 | 8:31.05 | 151000 | 189329
Трек 1
Имя файла C:\Шахматы\2009.Glen Hall & Gil Evans - The Mother Of The Book\01. Kikue.wav
Длина предзазора 0:00:02.00
Пиковый уровень 97.7 %
Скорость извлечения 2.4 X
Качество трека 100.0 %
CRC теста 95766790
CRC копии 95766790
Точность не определена (достоверность 1) [EC3A1372], AccurateRip вернул [007FAFAA] (AR v2)
Копирование... OK
Трек 2
Имя файла C:\Шахматы\2009.Glen Hall & Gil Evans - The Mother Of The Book\02. Old Woman River.wav
Длина предзазора 0:00:01.60
Пиковый уровень 97.7 %
Скорость извлечения 2.5 X
Качество трека 99.9 %
CRC теста 3AB5BAEC
CRC копии 3AB5BAEC
Точность не определена (достоверность 1) [A6F6666C], AccurateRip вернул [1C1D2A58] (AR v2)
Копирование... OK
Трек 3
Имя файла C:\Шахматы\2009.Glen Hall & Gil Evans - The Mother Of The Book\03. The Mother Of The Book.wav
Длина предзазора 0:00:01.15
Пиковый уровень 94.0 %
Скорость извлечения 3.1 X
Качество трека 100.0 %
CRC теста C7234F67
CRC копии C7234F67
Точность не определена (достоверность 1) [B5628480], AccurateRip вернул [519CD26F] (AR v2)
Копирование... OK
Трек 4
Имя файла C:\Шахматы\2009.Glen Hall & Gil Evans - The Mother Of The Book\04. The Folk.wav
Пиковый уровень 83.5 %
Скорость извлечения 3.2 X
Качество трека 100.0 %
CRC теста DA1FF36C
CRC копии DA1FF36C
Точность не определена (достоверность 1) [9C57B8BD], AccurateRip вернул [488DCE03] (AR v2)
Копирование... OK
Трек 5
Имя файла C:\Шахматы\2009.Glen Hall & Gil Evans - The Mother Of The Book\05. Muddy Waters.wav
Длина предзазора 0:00:01.33
Пиковый уровень 99.5 %
Скорость извлечения 3.4 X
Качество трека 100.0 %
CRC теста E99A74F8
CRC копии E99A74F8
Точность не определена (достоверность 1) [1BBD9A8A], AccurateRip вернул [1469CD8F] (AR v2)
Копирование... OK
Ни один трек не прошёл проверки на точность
В вашей базе может быть иной вариант штамповки диска
Ошибок не произошло
Конец отчёта
==== Контрольная сумма отчёта DE3BB2D3EC5F70235B30668E9AE78430C1EACF0C71AFEA67EF16535270312B86 ====
 
Содержание индексной карты (.CUE)
REM GENRE "Post-Bop, Progressive Jazz"
REM DATE 2008
REM DISCID 3C09DC05
REM COMMENT "ExactAudioCopy v1.0b3"
PERFORMER "Glen Hall & Gil Evans"
TITLE "The Mother Of The Book"
FILE "01. Kikue.wav" WAVE
TRACK 01 AUDIO
TITLE "Kikue"
PERFORMER "Glen Hall & Gil Evans"
INDEX 01 00:00:00
TRACK 02 AUDIO
TITLE "Old Woman River"
PERFORMER "Glen Hall & Gil Evans"
INDEX 00 13:54:27
FILE "02. Old Woman River.wav" WAVE
INDEX 01 00:00:00
TRACK 03 AUDIO
TITLE "The Mother Of The Book"
PERFORMER "Glen Hall & Gil Evans"
INDEX 00 05:30:35
FILE "03. The Mother Of The Book.wav" WAVE
INDEX 01 00:00:00
FILE "04. The Folk.wav" WAVE
TRACK 04 AUDIO
TITLE "The Folk"
PERFORMER "Glen Hall & Gil Evans"
INDEX 01 00:00:00
TRACK 05 AUDIO
TITLE "Muddy Waters "
PERFORMER "Glen Hall & Gil Evans"
INDEX 00 05:43:42
FILE "05. Muddy Waters.wav" WAVE
INDEX 01 00:00:00
Any questions -> support@pro-jazz.com. По всем вопросам пишите -> support@pro-jazz.com
20:29
162
Нет комментариев. Ваш будет первым!