Вы используете незарегистрированную версию компонента "Вкладки"!

Поиск

(Free Improvisation, Experimental) Ernesto Rodrigues-Jose Oliveira-Marco Franco - 23 Exposures - 2002, FLAC (tracks+.cue), lossless

(Free Improvisation, Experimental) Ernesto Rodrigues-Jose Oliveira-Marco Franco - 23 Exposures - 2002, FLAC (tracks+.cue), lossless
Треклист:
Ernesto Rodrigues-Jose Oliveira-Marco Franco - 23 Exposures
Жанр: Free Improvisation, Experimental
Страна-производитель диска: Portugal
Год издания диска: 2002
Издатель (лейбл): creative sources
Номер по каталогу: cs 003
Аудиокодек: FLAC (*.flac)
Тип рипа: tracks+.cue
Битрейт аудио: lossless
Продолжительность: 1:01:23
Источник (релизер): собственный рип с оригинального диска.
Наличие сканов в содержимом раздачи: да
Треклист:
Exposures 1 - 23
tt: 61:23
 
Лог создания рипа
Exact Audio Copy V1.0 beta 2 from 29. April 2011
EAC extraction logfile from 29. December 2011, 19:23
Ernesto Rodrigues / 23 Exposures
Used drive : TSSTcorpCDDVDW SH-S222A Adapter: 1 ID: 0
Read mode : Secure
Utilize accurate stream : Yes
Defeat audio cache : Yes
Make use of C2 pointers : No
Read offset correction : 6
Overread into Lead-In and Lead-Out : No
Fill up missing offset samples with silence : Yes
Delete leading and trailing silent blocks : No
Null samples used in CRC calculations : Yes
Used interface : Native Win32 interface for Win NT & 2000
Gap handling : Appended to previous track
Used output format : User Defined Encoder
Selected bitrate : 896 kBit/s
Quality : High
Add ID3 tag : No
Command line compressor : C:\Tool\CD\EAC10\FLAC\FLAC.EXE
Additional command line options : -6 -V -T "ARTIST=%artist%" -T "TITLE=%title%" -T "ALBUM=%albumtitle%" -T "DATE=%year%" -T "TRACKNUMBER=%tracknr%" -T "GENRE=%genre%" -T "COMMENT=%comment%" -T "BAND=%albuminterpret%" -T "COMPOSER=%composer%" %haslyrics%--ta
TOC of the extracted CD
Track | Start | Length | Start sector | End sector
---------------------------------------------------------
1 | 0:00.00 | 1:31.12 | 0 | 6836
2 | 1:31.12 | 2:01.49 | 6837 | 15960
3 | 3:32.61 | 2:20.29 | 15961 | 26489
4 | 5:53.15 | 2:31.32 | 26490 | 37846
5 | 8:24.47 | 3:16.45 | 37847 | 52591
6 | 11:41.17 | 2:16.06 | 52592 | 62797
7 | 13:57.23 | 1:22.64 | 62798 | 69011
8 | 15:20.12 | 1:56.38 | 69012 | 77749
9 | 17:16.50 | 2:18.01 | 77750 | 88100
10 | 19:34.51 | 1:58.43 | 88101 | 96993
11 | 21:33.19 | 5:02.74 | 96994 | 119717
12 | 26:36.18 | 3:02.53 | 119718 | 133420
13 | 29:38.71 | 2:53.11 | 133421 | 146406
14 | 32:32.07 | 1:55.12 | 146407 | 155043
15 | 34:27.19 | 3:13.16 | 155044 | 169534
16 | 37:40.35 | 3:28.62 | 169535 | 185196
17 | 41:09.22 | 2:57.62 | 185197 | 198533
18 | 44:07.09 | 3:48.71 | 198534 | 215704
19 | 47:56.05 | 2:11.24 | 215705 | 225553
20 | 50:07.29 | 3:11.07 | 225554 | 239885
21 | 53:18.36 | 2:14.20 | 239886 | 249955
22 | 55:32.56 | 3:19.47 | 249956 | 264927
23 | 58:52.28 | 2:31.17 | 264928 | 276269
Track 1
Filename C:\! UPLOAD\Rodrigues-Franco-Oliveira - 23 Exposures (2002) [FLAC] {creative sources}\01 - Exposures 1.wav
Pre-gap length 0:00:02.00
Peak level 84.7 %
Extraction speed 2.4 X
Track quality 100.0 %
Test CRC A93C9289
Copy CRC A93C9289
Track not present in AccurateRip database
Copy OK
Track 2
Filename C:\! UPLOAD\Rodrigues-Franco-Oliveira - 23 Exposures (2002) [FLAC] {creative sources}\02 - Exposures 2.wav
Pre-gap length 0:00:01.73
Peak level 81.4 %
Extraction speed 2.6 X
Track quality 100.0 %
Test CRC AEFD3F0C
Copy CRC AEFD3F0C
Track not present in AccurateRip database
Copy OK
Track 3
Filename C:\! UPLOAD\Rodrigues-Franco-Oliveira - 23 Exposures (2002) [FLAC] {creative sources}\03 - Exposures 3.wav
Pre-gap length 0:00:01.73
Peak level 49.9 %
Extraction speed 2.2 X
Track quality 99.9 %
Test CRC C5A9674C
Copy CRC C5A9674C
Track not present in AccurateRip database
Copy OK
Track 4
Filename C:\! UPLOAD\Rodrigues-Franco-Oliveira - 23 Exposures (2002) [FLAC] {creative sources}\04 - Exposures 4.wav
Pre-gap length 0:00:01.73
Peak level 83.9 %
Extraction speed 2.8 X
Track quality 100.0 %
Test CRC 3836776A
Copy CRC 3836776A
Track not present in AccurateRip database
Copy OK
Track 5
Filename C:\! UPLOAD\Rodrigues-Franco-Oliveira - 23 Exposures (2002) [FLAC] {creative sources}\05 - Exposures 5.wav
Pre-gap length 0:00:01.73
Peak level 59.2 %
Extraction speed 3.0 X
Track quality 100.0 %
Test CRC 83C92AEB
Copy CRC 83C92AEB
Track not present in AccurateRip database
Copy OK
Track 6
Filename C:\! UPLOAD\Rodrigues-Franco-Oliveira - 23 Exposures (2002) [FLAC] {creative sources}\06 - Exposures 6.wav
Pre-gap length 0:00:01.73
Peak level 20.4 %
Extraction speed 2.2 X
Track quality 99.9 %
Test CRC 61E9368B
Copy CRC 61E9368B
Track not present in AccurateRip database
Copy OK
Track 7
Filename C:\! UPLOAD\Rodrigues-Franco-Oliveira - 23 Exposures (2002) [FLAC] {creative sources}\07 - Exposures 7.wav
Pre-gap length 0:00:01.73
Peak level 39.0 %
Extraction speed 2.4 X
Track quality 100.0 %
Test CRC FC35C0BA
Copy CRC FC35C0BA
Track not present in AccurateRip database
Copy OK
Track 8
Filename C:\! UPLOAD\Rodrigues-Franco-Oliveira - 23 Exposures (2002) [FLAC] {creative sources}\08 - Exposures 8.wav
Pre-gap length 0:00:01.73
Peak level 66.1 %
Extraction speed 2.1 X
Track quality 99.9 %
Test CRC 948B0DCA
Copy CRC 948B0DCA
Track not present in AccurateRip database
Copy OK
Track 9
Filename C:\! UPLOAD\Rodrigues-Franco-Oliveira - 23 Exposures (2002) [FLAC] {creative sources}\09 - Exposures 9.wav
Pre-gap length 0:00:01.73
Peak level 92.0 %
Extraction speed 2.8 X
Track quality 100.0 %
Test CRC D8A24CB6
Copy CRC D8A24CB6
Track not present in AccurateRip database
Copy OK
Track 10
Filename C:\! UPLOAD\Rodrigues-Franco-Oliveira - 23 Exposures (2002) [FLAC] {creative sources}\10 - Exposures 10.wav
Pre-gap length 0:00:01.73
Peak level 65.4 %
Extraction speed 2.7 X
Track quality 100.0 %
Test CRC F59FF2D9
Copy CRC F59FF2D9
Track not present in AccurateRip database
Copy OK
Track 11
Filename C:\! UPLOAD\Rodrigues-Franco-Oliveira - 23 Exposures (2002) [FLAC] {creative sources}\11 - Exposures 11.wav
Pre-gap length 0:00:01.73
Peak level 65.3 %
Extraction speed 3.1 X
Track quality 100.0 %
Test CRC F09329A8
Copy CRC F09329A8
Track not present in AccurateRip database
Copy OK
Track 12
Filename C:\! UPLOAD\Rodrigues-Franco-Oliveira - 23 Exposures (2002) [FLAC] {creative sources}\12 - Exposures 12.wav
Pre-gap length 0:00:01.73
Peak level 52.1 %
Extraction speed 2.9 X
Track quality 100.0 %
Test CRC F7F151D8
Copy CRC F7F151D8
Track not present in AccurateRip database
Copy OK
Track 13
Filename C:\! UPLOAD\Rodrigues-Franco-Oliveira - 23 Exposures (2002) [FLAC] {creative sources}\13 - Exposures 13.wav
Pre-gap length 0:00:01.73
Peak level 29.8 %
Extraction speed 2.9 X
Track quality 100.0 %
Test CRC 33AC5898
Copy CRC 33AC5898
Track not present in AccurateRip database
Copy OK
Track 14
Filename C:\! UPLOAD\Rodrigues-Franco-Oliveira - 23 Exposures (2002) [FLAC] {creative sources}\14 - Exposures 14.wav
Pre-gap length 0:00:01.73
Peak level 94.4 %
Extraction speed 2.1 X
Track quality 99.9 %
Test CRC F949F297
Copy CRC F949F297
Track not present in AccurateRip database
Copy OK
Track 15
Filename C:\! UPLOAD\Rodrigues-Franco-Oliveira - 23 Exposures (2002) [FLAC] {creative sources}\15 - Exposures 15.wav
Pre-gap length 0:00:01.73
Peak level 38.8 %
Extraction speed 2.5 X
Track quality 99.9 %
Test CRC 8FA56639
Copy CRC 8FA56639
Track not present in AccurateRip database
Copy OK
Track 16
Filename C:\! UPLOAD\Rodrigues-Franco-Oliveira - 23 Exposures (2002) [FLAC] {creative sources}\16 - Exposures 16.wav
Pre-gap length 0:00:01.73
Peak level 99.4 %
Extraction speed 2.5 X
Track quality 99.9 %
Test CRC E34A32F0
Copy CRC E34A32F0
Track not present in AccurateRip database
Copy OK
Track 17
Filename C:\! UPLOAD\Rodrigues-Franco-Oliveira - 23 Exposures (2002) [FLAC] {creative sources}\17 - Exposures 17.wav
Pre-gap length 0:00:01.73
Peak level 55.9 %
Extraction speed 2.9 X
Track quality 100.0 %
Test CRC 2A94737F
Copy CRC 2A94737F
Track not present in AccurateRip database
Copy OK
Track 18
Filename C:\! UPLOAD\Rodrigues-Franco-Oliveira - 23 Exposures (2002) [FLAC] {creative sources}\18 - Exposures 18.wav
Pre-gap length 0:00:01.73
Peak level 33.3 %
Extraction speed 3.0 X
Track quality 100.0 %
Test CRC 55C8EE5D
Copy CRC 55C8EE5D
Track not present in AccurateRip database
Copy OK
Track 19
Filename C:\! UPLOAD\Rodrigues-Franco-Oliveira - 23 Exposures (2002) [FLAC] {creative sources}\19 - Exposures 19.wav
Pre-gap length 0:00:01.73
Peak level 59.4 %
Extraction speed 2.7 X
Track quality 100.0 %
Test CRC DC5F0130
Copy CRC DC5F0130
Track not present in AccurateRip database
Copy OK
Track 20
Filename C:\! UPLOAD\Rodrigues-Franco-Oliveira - 23 Exposures (2002) [FLAC] {creative sources}\20 - Exposures 20.wav
Pre-gap length 0:00:01.73
Peak level 35.2 %
Extraction speed 2.9 X
Track quality 100.0 %
Test CRC 36DA469D
Copy CRC 36DA469D
Track not present in AccurateRip database
Copy OK
Track 21
Filename C:\! UPLOAD\Rodrigues-Franco-Oliveira - 23 Exposures (2002) [FLAC] {creative sources}\21 - Exposures 21.wav
Pre-gap length 0:00:01.73
Peak level 51.9 %
Extraction speed 2.7 X
Track quality 100.0 %
Test CRC 24CCD0F3
Copy CRC 24CCD0F3
Track not present in AccurateRip database
Copy OK
Track 22
Filename C:\! UPLOAD\Rodrigues-Franco-Oliveira - 23 Exposures (2002) [FLAC] {creative sources}\22 - Exposures 22.wav
Pre-gap length 0:00:01.73
Peak level 66.5 %
Extraction speed 2.9 X
Track quality 100.0 %
Test CRC 453E24F7
Copy CRC 453E24F7
Track not present in AccurateRip database
Copy OK
Track 23
Filename C:\! UPLOAD\Rodrigues-Franco-Oliveira - 23 Exposures (2002) [FLAC] {creative sources}\23 - Exposures 23.wav
Pre-gap length 0:00:01.73
Peak level 63.9 %
Extraction speed 2.3 X
Track quality 100.0 %
Test CRC E7FAB5A4
Copy CRC E7FAB5A4
Track not present in AccurateRip database
Copy OK
None of the tracks are present in the AccurateRip database
No errors occurred
End of status report
---- CUETools DB Plugin V2.1.2
[CTDB TOCID: 0Hw4f3WMQdL5YzOQdl5pvRN7HfY-] disk not present in database, Submit result: 0Hw4f3WMQdL5YzOQdl5pvRN7HfY- has been uploaded
==== Log checksum C63875EEF5D3B93CD4776635A16D05AB30FBF2448D80E390A12A0104FD6B3AAD ====
 
Содержание индексной карты (.CUE)
REM GENRE Avantgarde
REM DATE 2002
REM DISCID 450E6317
REM COMMENT "ExactAudioCopy v1.0b2"
PERFORMER "Ernesto Rodrigues"
TITLE "23 Exposures"
FILE "01 - Exposures 1.wav" WAVE
TRACK 01 AUDIO
TITLE "Exposures 1"
PERFORMER "Ernesto Rodrigues"
INDEX 01 00:00:00
TRACK 02 AUDIO
TITLE "Exposures 2"
PERFORMER "Ernesto Rodrigues"
INDEX 00 01:29:14
FILE "02 - Exposures 2.wav" WAVE
INDEX 01 00:00:00
TRACK 03 AUDIO
TITLE "Exposures 3"
PERFORMER "Ernesto Rodrigues"
INDEX 00 01:59:51
FILE "03 - Exposures 3.wav" WAVE
INDEX 01 00:00:00
TRACK 04 AUDIO
TITLE "Exposures 4"
PERFORMER "Ernesto Rodrigues"
INDEX 00 02:18:31
FILE "04 - Exposures 4.wav" WAVE
INDEX 01 00:00:00
TRACK 05 AUDIO
TITLE "Exposures 5"
PERFORMER "Ernesto Rodrigues"
INDEX 00 02:29:34
FILE "05 - Exposures 5.wav" WAVE
INDEX 01 00:00:00
TRACK 06 AUDIO
TITLE "Exposures 6"
PERFORMER "Ernesto Rodrigues"
INDEX 00 03:14:47
FILE "06 - Exposures 6.wav" WAVE
INDEX 01 00:00:00
TRACK 07 AUDIO
TITLE "Exposures 7"
PERFORMER "Ernesto Rodrigues"
INDEX 00 02:14:08
FILE "07 - Exposures 7.wav" WAVE
INDEX 01 00:00:00
TRACK 08 AUDIO
TITLE "Exposures 8"
PERFORMER "Ernesto Rodrigues"
INDEX 00 01:20:66
FILE "08 - Exposures 8.wav" WAVE
INDEX 01 00:00:00
TRACK 09 AUDIO
TITLE "Exposures 9"
PERFORMER "Ernesto Rodrigues"
INDEX 00 01:54:40
FILE "09 - Exposures 9.wav" WAVE
INDEX 01 00:00:00
TRACK 10 AUDIO
TITLE "Exposures 10"
PERFORMER "Ernesto Rodrigues"
INDEX 00 02:16:03
FILE "10 - Exposures 10.wav" WAVE
INDEX 01 00:00:00
TRACK 11 AUDIO
TITLE "Exposures 11"
PERFORMER "Ernesto Rodrigues"
INDEX 00 01:56:45
FILE "11 - Exposures 11.wav" WAVE
INDEX 01 00:00:00
TRACK 12 AUDIO
TITLE "Exposures 12"
PERFORMER "Ernesto Rodrigues"
INDEX 00 05:01:01
FILE "12 - Exposures 12.wav" WAVE
INDEX 01 00:00:00
TRACK 13 AUDIO
TITLE "Exposures 13"
PERFORMER "Ernesto Rodrigues"
INDEX 00 03:00:55
FILE "13 - Exposures 13.wav" WAVE
INDEX 01 00:00:00
TRACK 14 AUDIO
TITLE "Exposures 14"
PERFORMER "Ernesto Rodrigues"
INDEX 00 02:51:13
FILE "14 - Exposures 14.wav" WAVE
INDEX 01 00:00:00
TRACK 15 AUDIO
TITLE "Exposures 15"
PERFORMER "Ernesto Rodrigues"
INDEX 00 01:53:14
FILE "15 - Exposures 15.wav" WAVE
INDEX 01 00:00:00
TRACK 16 AUDIO
TITLE "Exposures 16"
PERFORMER "Ernesto Rodrigues"
INDEX 00 03:11:18
FILE "16 - Exposures 16.wav" WAVE
INDEX 01 00:00:00
TRACK 17 AUDIO
TITLE "Exposures 17"
PERFORMER "Ernesto Rodrigues"
INDEX 00 03:26:64
FILE "17 - Exposures 17.wav" WAVE
INDEX 01 00:00:00
TRACK 18 AUDIO
TITLE "Exposures 18"
PERFORMER "Ernesto Rodrigues"
INDEX 00 02:55:64
FILE "18 - Exposures 18.wav" WAVE
INDEX 01 00:00:00
TRACK 19 AUDIO
TITLE "Exposures 19"
PERFORMER "Ernesto Rodrigues"
INDEX 00 03:46:73
FILE "19 - Exposures 19.wav" WAVE
INDEX 01 00:00:00
TRACK 20 AUDIO
TITLE "Exposures 20"
PERFORMER "Ernesto Rodrigues"
INDEX 00 02:09:26
FILE "20 - Exposures 20.wav" WAVE
INDEX 01 00:00:00
TRACK 21 AUDIO
TITLE "Exposures 21"
PERFORMER "Ernesto Rodrigues"
INDEX 00 03:09:09
FILE "21 - Exposures 21.wav" WAVE
INDEX 01 00:00:00
TRACK 22 AUDIO
TITLE "Exposures 22"
PERFORMER "Ernesto Rodrigues"
INDEX 00 02:12:22
FILE "22 - Exposures 22.wav" WAVE
INDEX 01 00:00:00
TRACK 23 AUDIO
TITLE "Exposures 23"
PERFORMER "Ernesto Rodrigues"
INDEX 00 03:17:49
FILE "23 - Exposures 23.wav" WAVE
INDEX 01 00:00:00
Доп. информация:
Recorded on 6 November 2001 at Exit Studios, Lisbon
 
Об альбоме - Ken Waxman (Jazz Word)
"...The music produced by the trio on «23 Exposures» can be said to have a British imprint. Concerned with sounds and silence and prefaced by a quote from John Cage about the fascination of noise, the disc has been compared to a photographic exposures. Showcasing greater or lesser sharpness of aural images, it's part of a series of discs created by Ernesto Rodrigues, who has a background in improv, classical and pop music, on violin and viola in collaboration with José Oliveira and others such as cellist Guilherme Rodrigues and pianist Gabriel Paiuk. Over the course of the 23 so-called exposures, which range in length from a little more than one minute to just over five -- with most in the two and three minute range -- reference points are the experimental tone scientist work done by Brit improvisers. Saxophonist John Butcher, violinist Phil Wachsmann, guitarist Derek Bailey and especially percussionist John Stevens come first to mind. Steven's non-hierarchical Spontaneous Music Ensemble ethos is echoed here, with each musician doing his best to contribute to the overall sound picture. On the longest track, the violinist exhibits a shrill human-sounding shriek that meet scratching, abrasive sandpaper percussion that soon turn to what appears to be the sounds of mice scampering through the studio. Marco Franco dispenses a series of tongue-slaps that appear to have been born in his mouthpiece alone. Producing a modest, elongated sax tone, the finale winds down with violin strings slashed so quickly that the result resembles a tape machine running backwards. With the tracks often melting together into many variations on a theme, the catalogue of varied and extended effects often precludes ascription of any one to any instrument. Marco Franco offers bird-like chirps, percussive tongue slaps, spit-defined reed kisses and rhythmic key pops. José Olivera highlights nagging cymbal pings, the pealing of tiny bells, the rattle of chains, a bow scratching on the cymbal's metallic surface and what appears to be toys rolling on drum heads. On guitar, he seems to go Bailey one better, preferring a single note to a chord and a touch to a lick. What picking and plunking that is heard results from Ernesto Rodrigues' pizzicato work, which at times seems as if he's turned the gut string elastic and is gradually using torsion, stretching and wrenching them until they're on the cusp of breaking. His interest in post-serialism doesn't preclude the odd, minute arco glissando that produces a so-called classical tone. Most of the time, though, the reedist and fiddler proceed in such close proximity that the frequent elongated smears and split tones that define many section could come from either of their instruments. This is a challenging but ultimately satisfying listening experience. [...] it will likely be the vision of [...] Ernesto Rodrigues that will define Portuguese free music for years to come."
 
Состав
Ernesto Rodrigues - violin, viola
Marco Franco - soprano saxophone
José Oliveira - percussion, acoustic guitar
Any questions -> support@pro-jazz.com. По всем вопросам пишите -> support@pro-jazz.com
20:27
174
Нет комментариев. Ваш будет первым!