Вы используете незарегистрированную версию компонента "Вкладки"!

Поиск

(Free Improvisation / Experimental / Noise) [CD] Fake The Facts (Mats Gustafsson, Dieb13, Martin Siewert) - Soundtrack - 2014, FLAC (tracks+.cue), lossless

(Free Improvisation / Experimental / Noise) [CD] Fake The Facts (Mats Gustafsson, Dieb13, Martin Siewert) - Soundtrack - 2014, FLAC (tracks+.cue), lossless
Треклист:
Fake The Facts - Soundtrack
Жанр: Free Improvisation / Experimental / Noise
Носитель: CD
Страна-производитель диска (релиза): Austria
Год издания: 2014
Издатель (лейбл): Trost Records
Номер по каталогу: TR 129
Аудиокодек: FLAC (*.flac)
Тип рипа: tracks+.cue
Битрейт аудио: lossless
Продолжительность: 00:48:47
Источник (релизер): what.cd / спасибо kivius
Наличие сканов в содержимом раздачи: нет
Треклист:
1. Socks Full Of Sawdust (10:00)
2. Polyphony Of A Metropolis (07:18)
3. Crazy Mix Up Pup (08:02)
4. Dance Your Cares Away (05:04)
5. The Great Fire Of London (08:19)
6. Do Electric Moths Dream Of Light Bulbs? (10:01)
Доп. информация:
Musicians:
Mats Gustafsson - saxophones, shaker, saxophone-generated ambient noise
Dieb13 - turntables, klopfer
Martin Siewert - guitar, ring stinger, electronics
Recorded by Martin Siewert at G7, Vienna in January 2013
Fake The Facts - Soundtrack bandcamp.com
Fake The Facts - Soundtrack allaboutjazz.com
Fake The Facts - Soundtrack freejazzblog.org
Mats Gustafsson Official Site
 
... photo ...
 
Лог создания рипа
Exact Audio Copy V1.0 beta 3 from 29. August 2011
EAC extraction logfile from 5. April 2014, 12:05
Fake The Facts / Soundtrack
Used drive : TSSTcorpCDDVDW SE-208DB Adapter: 2 ID: 0
Read mode : Secure
Utilize accurate stream : Yes
Defeat audio cache : Yes
Make use of C2 pointers : No
Read offset correction : 6
Overread into Lead-In and Lead-Out : No
Fill up missing offset samples with silence : Yes
Delete leading and trailing silent blocks : No
Null samples used in CRC calculations : Yes
Used interface : Native Win32 interface for Win NT & 2000
Gap handling : Appended to previous track
Used output format : User Defined Encoder
Selected bitrate : 1024 kBit/s
Quality : High
Add ID3 tag : No
Command line compressor : C:\Program Files (x86)\Exact Audio Copy\FLAC\FLAC.EXE
Additional command line options : -8 -V -T "ARTIST=%artist%" -T "TITLE=%title%" -T "ALBUM=%albumtitle%" -T "DATE=%year%" -T "TRACKNUMBER=%tracknr%" -T "GENRE=%genre%" -T "PERFORMER=%albuminterpret%" -T "COMPOSER=%composer%" %haslyrics%--tag-from-file=LYRICS="%lyricsfile%"%haslyrics% -T "ALBUMARTIST=%albumartist%" -T "DISCNUMBER=%cdnumber%" -T "TOTALDISCS=%totalcds%" -T "TOTALTRACKS=%numtracks%" -T "COMMENT=%comment%" %source% -o %dest%
TOC of the extracted CD
Track | Start | Length | Start sector | End sector
---------------------------------------------------------
1 | 0:00.00 | 10:04.64 | 0 | 45363
2 | 10:04.64 | 7:18.66 | 45364 | 78279
3 | 17:23.55 | 8:07.19 | 78280 | 114823
4 | 25:30.74 | 5:07.26 | 114824 | 137874
5 | 30:38.25 | 8:22.36 | 137875 | 175560
6 | 39:00.61 | 10:01.56 | 175561 | 220691
Track 1
Filename W:\_MUSIC ALL\Fake The Facts - Soundtrack (2014) [FLAC]\01. Socks Full Of Sawdust.wav
Pre-gap length 0:00:02.00
Peak level 98.8 %
Extraction speed 2.7 X
Track quality 99.9 %
Test CRC D1EC8ED8
Copy CRC D1EC8ED8
Track not present in AccurateRip database
Copy OK
Track 2
Filename W:\_MUSIC ALL\Fake The Facts - Soundtrack (2014) [FLAC]\02. Polyphony Of A Metropolis.wav
Pre-gap length 0:00:04.10
Peak level 98.8 %
Extraction speed 3.0 X
Track quality 99.9 %
Test CRC D2542243
Copy CRC D2542243
Track not present in AccurateRip database
Copy OK
Track 3
Filename W:\_MUSIC ALL\Fake The Facts - Soundtrack (2014) [FLAC]\03. Crazy Mix Up Pup.wav
Pre-gap length 0:00:00.18
Peak level 98.8 %
Extraction speed 3.9 X
Track quality 100.0 %
Test CRC 41CA6BAC
Copy CRC 41CA6BAC
Track not present in AccurateRip database
Copy OK
Track 4
Filename W:\_MUSIC ALL\Fake The Facts - Soundtrack (2014) [FLAC]\04. Dance Your Cares Away.wav
Pre-gap length 0:00:04.72
Peak level 98.8 %
Extraction speed 4.0 X
Track quality 100.0 %
Test CRC 5FA5A92C
Copy CRC 5FA5A92C
Track not present in AccurateRip database
Copy OK
Track 5
Filename W:\_MUSIC ALL\Fake The Facts - Soundtrack (2014) [FLAC]\05. The Great Fire Of London.wav
Pre-gap length 0:00:03.02
Peak level 98.8 %
Extraction speed 4.5 X
Track quality 100.0 %
Test CRC 27AE64BB
Copy CRC 27AE64BB
Track not present in AccurateRip database
Copy OK
Track 6
Filename W:\_MUSIC ALL\Fake The Facts - Soundtrack (2014) [FLAC]\06. Do Electric Moths Dream Of Light Bulbs.wav
Pre-gap length 0:00:02.54
Peak level 98.8 %
Extraction speed 4.9 X
Track quality 100.0 %
Test CRC 3DBECBA8
Copy CRC 3DBECBA8
Track not present in AccurateRip database
Copy OK
None of the tracks are present in the AccurateRip database
No errors occurred
End of status report
---- CUETools DB Plugin V2.1.3
[CTDB TOCID: 0.qn14KQO.fWjaYpM74uNfW3_vM-] disk not present in database, Submit result: 0.qn14KQO.fWjaYpM74uNfW3_vM- has been uploaded
==== Log checksum 23BE21A1B2F667E49FCCF6102EC9D4B3ADC5230D6AFE5F193C3EB9A327B094B3 ====
 
Содержание индексной карты (.CUE)
REM GENRE Jazz
REM DATE 2014
REM DISCID 3B0B7E06
REM COMMENT "ExactAudioCopy v1.0b3"
CATALOG 9120036681491
PERFORMER "Fake The Facts"
TITLE "Soundtrack"
FILE "01. Socks Full Of Sawdust.wav" WAVE
TRACK 01 AUDIO
TITLE "Socks Full Of Sawdust"
PERFORMER "Fake The Facts"
ISRC ATD411404001
INDEX 01 00:00:00
TRACK 02 AUDIO
TITLE "Polyphony Of A Metropolis"
PERFORMER "Fake The Facts"
ISRC ATD411404002
INDEX 00 10:00:56
FILE "02. Polyphony Of A Metropolis.wav" WAVE
INDEX 01 00:00:00
TRACK 03 AUDIO
TITLE "Crazy Mix Up Pup"
PERFORMER "Fake The Facts"
ISRC ATD411404003
INDEX 00 07:18:52
FILE "03. Crazy Mix Up Pup.wav" WAVE
INDEX 01 00:00:00
TRACK 04 AUDIO
TITLE "Dance Your Cares Away"
PERFORMER "Fake The Facts"
ISRC ATD411404004
INDEX 00 08:02:40
FILE "04. Dance Your Cares Away.wav" WAVE
INDEX 01 00:00:00
TRACK 05 AUDIO
TITLE "The Great Fire Of London"
PERFORMER "Fake The Facts"
ISRC ATD411404005
INDEX 00 05:04:24
FILE "05. The Great Fire Of London.wav" WAVE
INDEX 01 00:00:00
TRACK 06 AUDIO
TITLE "Do Electric Moths Dream Of Light Bulbs?"
PERFORMER "Fake The Facts"
ISRC ATD411404006
INDEX 00 08:19:70
FILE "06. Do Electric Moths Dream Of Light Bulbs.wav" WAVE
INDEX 01 00:00:00
... релизы с участием MATS GUSTAFSSON на трекере ...
По всем вопросам пишите личное сообщение пользователю M0p94ok.
09:55
268
Нет комментариев. Ваш будет первым!