Вы используете незарегистрированную версию компонента "Вкладки"!

Поиск

(Free Jazz, Contemporary Jazz) [CD] Nordic Trinity (Juhani Aaltonen, Mikko Iivanainen, Klaus Suonsaari) - Wonders Never Cease - 2006, FLAC (tracks+.cue), lossless

(Free Jazz, Contemporary Jazz) [CD] Nordic Trinity (Juhani Aaltonen, Mikko Iivanainen, Klaus Suonsaari) - Wonders Never Cease - 2006, FLAC (tracks+.cue), lossless
Треклист:
Nordic Trinity / Wonders Never Cease
Жанр: Free Jazz, Contemporary Jazz
Носитель: CD
Страна-производитель диска (релиза): US
Год издания: 2006
Издатель (лейбл): KSJazz
Номер по каталогу: 11759-3307-2
Аудиокодек: FLAC (*.flac)
Тип рипа: tracks+.cue
Битрейт аудио: lossless
Продолжительность: 51:00
Источник (релизер): cd
Наличие сканов в содержимом раздачи: нет
Треклист:
1. Wonders Never Cease 6:48
2. Offering 6:57
3. Passion 5:51
4. Autumn Dance 3:48
5. All My Yesterdays 4:04
6. Sininen Uni 4:47
7. Noble's Dream 8:52
8. Snarling Dogs 3:33
9. Peace Of Mind 6:00
 
Лог создания рипа
Exact Audio Copy V1.0 beta 3 from 29. August 2011
EAC extraction logfile from 27. February 2015, 10:39
Nordic Trinity / Wonders Never Cease
Used drive : ASUS DRW-24F1ST a Adapter: 0 ID: 0
Read mode : Secure
Utilize accurate stream : Yes
Defeat audio cache : Yes
Make use of C2 pointers : No
Read offset correction : 6
Overread into Lead-In and Lead-Out : No
Fill up missing offset samples with silence : Yes
Delete leading and trailing silent blocks : No
Null samples used in CRC calculations : Yes
Used interface : Native Win32 interface for Win NT & 2000
Gap handling : Appended to previous track
Used output format : User Defined Encoder
Selected bitrate : 320 kBit/s
Quality : High
Add ID3 tag : No
Command line compressor : D:\Programs\Exact Audio Copy\Flac\flac.exe
Additional command line options : -V -8 -T "Genre=%genre%" -T "Artist=%artist%" -T "Title=%title%" -T "Album=%albumtitle%" -T "Date=%year%" -T "Tracknumber=%tracknr%" -T "Comment=%comment%" %source%
TOC of the extracted CD
Track | Start | Length | Start sector | End sector
---------------------------------------------------------
1 | 0:00.00 | 6:49.54 | 0 | 30728
2 | 6:49.54 | 6:59.66 | 30729 | 62219
3 | 13:49.45 | 5:52.13 | 62220 | 88632
4 | 19:41.58 | 3:50.66 | 88633 | 105948
5 | 23:32.49 | 4:06.33 | 105949 | 124431
6 | 27:39.07 | 4:49.71 | 124432 | 146177
7 | 32:29.03 | 8:54.39 | 146178 | 186266
8 | 41:23.42 | 3:36.45 | 186267 | 202511
9 | 45:00.12 | 6:00.21 | 202512 | 229532
Track 1
Filename D:\EAC\01 Wonders Never Cease.wav
Pre-gap length 0:00:02.00
Peak level 97.5 %
Extraction speed 4.7 X
Track quality 100.0 %
Test CRC 1AE9451C
Copy CRC 1AE9451C
Copy OK
Track 2
Filename D:\EAC\02 Offering.wav
Pre-gap length 0:00:01.66
Peak level 97.3 %
Extraction speed 5.5 X
Track quality 100.0 %
Test CRC CF86FE08
Copy CRC CF86FE08
Copy OK
Track 3
Filename D:\EAC\03 Passion.wav
Pre-gap length 0:00:02.27
Peak level 97.4 %
Extraction speed 6.1 X
Track quality 100.0 %
Test CRC DFD02668
Copy CRC DFD02668
Copy OK
Track 4
Filename D:\EAC\04 Autumn Dance.wav
Pre-gap length 0:00:01.28
Peak level 97.8 %
Extraction speed 6.1 X
Track quality 100.0 %
Test CRC 1F513789
Copy CRC 1F513789
Copy OK
Track 5
Filename D:\EAC\05 All My Yesterdays.wav
Pre-gap length 0:00:02.64
Peak level 97.5 %
Extraction speed 6.4 X
Track quality 100.0 %
Test CRC 3773E622
Copy CRC 3773E622
Copy OK
Track 6
Filename D:\EAC\06 Sininen Uni.wav
Pre-gap length 0:00:02.43
Peak level 97.5 %
Extraction speed 6.9 X
Track quality 100.0 %
Test CRC ACCBD12F
Copy CRC ACCBD12F
Copy OK
Track 7
Filename D:\EAC\07 Noble's Dream.wav
Pre-gap length 0:00:03.09
Peak level 97.4 %
Extraction speed 7.3 X
Track quality 99.9 %
Test CRC E6D88FA9
Copy CRC E6D88FA9
Copy OK
Track 8
Filename D:\EAC\08 Snarling Dogs.wav
Pre-gap length 0:00:02.09
Peak level 97.6 %
Extraction speed 7.4 X
Track quality 100.0 %
Test CRC 02EF4AC0
Copy CRC 02EF4AC0
Copy OK
Track 9
Filename D:\EAC\09 Peace of Mind.wav
Pre-gap length 0:00:03.57
Peak level 97.5 %
Extraction speed 8.2 X
Track quality 100.0 %
Test CRC 2D6B4C6A
Copy CRC 2D6B4C6A
Copy OK
No errors occurred
End of status report
==== Log checksum 481EFA0C0D1808B4E6B3877201863E3732ED52E8D0160125687506701921DDD8 ====
 
Содержание индексной карты (.CUE)
REM GENRE Jazz
REM DATE 2006
REM DISCID 670BF409
REM COMMENT "ExactAudioCopy v1.0b3"
PERFORMER "Nordic Trinity"
TITLE "Wonders Never Cease "
FILE "01 Wonders Never Cease.wav" WAVE
TRACK 01 AUDIO
TITLE "Wonders Never Cease"
PERFORMER "Nordic Trinity"
ISRC USAFK0500029
INDEX 01 00:00:00
TRACK 02 AUDIO
TITLE "Offering"
PERFORMER "Nordic Trinity"
ISRC USAFK0500030
INDEX 00 06:47:63
FILE "02 Offering.wav" WAVE
INDEX 01 00:00:00
TRACK 03 AUDIO
TITLE "Passion"
PERFORMER "Nordic Trinity"
ISRC USAFK0500031
INDEX 00 06:57:39
FILE "03 Passion.wav" WAVE
INDEX 01 00:00:00
TRACK 04 AUDIO
TITLE "Autumn Dance"
PERFORMER "Nordic Trinity"
ISRC USAFK0500032
INDEX 00 05:50:60
FILE "04 Autumn Dance.wav" WAVE
INDEX 01 00:00:00
TRACK 05 AUDIO
TITLE "All My Yesterdays"
PERFORMER "Nordic Trinity"
ISRC USAFK0500033
INDEX 00 03:48:02
FILE "05 All My Yesterdays.wav" WAVE
INDEX 01 00:00:00
TRACK 06 AUDIO
TITLE "Sininen Uni"
PERFORMER "Nordic Trinity"
ISRC USAFK0500034
INDEX 00 04:03:65
FILE "06 Sininen Uni.wav" WAVE
INDEX 01 00:00:00
TRACK 07 AUDIO
TITLE "Noble's Dream"
PERFORMER "Nordic Trinity"
ISRC USAFK0500035
INDEX 00 04:46:62
FILE "07 Noble's Dream.wav" WAVE
INDEX 01 00:00:00
TRACK 08 AUDIO
TITLE "Snarling Dogs"
PERFORMER "Nordic Trinity"
ISRC USAFK0500036
INDEX 00 08:52:30
FILE "08 Snarling Dogs.wav" WAVE
INDEX 01 00:00:00
TRACK 09 AUDIO
TITLE "Peace of Mind"
PERFORMER "Nordic Trinity"
ISRC USAFK0500037
INDEX 00 03:32:63
FILE "09 Peace of Mind.wav" WAVE
INDEX 01 00:00:00
Доп. информация: Recorded September 19 & 20, 2005 at Finnish Broadcasting Company (YLE) Studio M1, Helsinki, Finland
 
Об альбоме (сборнике)
The Nordic Trinity comprises three generations of Finnish musicians, which must say something about the perspective of guitarist Mikko Iivanainen, who founded the group. He is the youngest of the three, having been born in 1975. The other two, Juhani Aaltonen (tenor saxophone; born in 1935) and Klaus Suonsaari (drums; born in 1959) have established themselves in the twin worlds of jazz and improvised music. Suonsaari has long been in the US, while Aaltonen is heralded as the founding father of the Finnish saxophone sound.
The music of this Trinity has a wide sweep. The musicians let invention guide their path as they build around a jazz core with chamber music, rock and whatever captures their imagination at the moment. For them "Passion is a warm embrace. Aaltonen opens with a gorgeous fluid tonality before moving into a deeper pith, keeping the flame glowing to the end. The form is looser on "Autumn Dance, where Aaltonen lets the notes tumble out of his saxophone, his restlessness met with the rock stance of Iivanainen's guitar, reveling in feedback.
"Snarling Dogs lives up to the image it creates—and once again, Iivanainen's riffs testify to their penchant for delving into hard rock territory. Aaltonen brings in the jazz harmonies and Suonsaari, as he does on the other tracks, imparts thrust and impetus to the movement.
As enjoyable as its excursions into this territory are, the Nordic Trinity shows a greater presence on the slower tunes. It is here that the musicians pack an emotional wallop: all three find that cord which makes the heart beat more happily. This resolution is seen at its best on the attractive structure of "All My Yesterdays," where the melody opens on the saxophone with calm deliberation and then spreads with an articulate demeanour.
 
Состав
Drums, Gong – Klaus Suonsaari
Guitar – Mikko Iivanainen
Tenor Saxophone – Juhani Aaltonen
По всем вопросам пишите личное сообщение пользователю M0p94ok.
09:56
213
Нет комментариев. Ваш будет первым!