Вы используете незарегистрированную версию компонента "Вкладки"!

Поиск

(Avant-Garde Jazz / Free Improvisation) [CD] Parti & Minut (Johan Jonsson, Per-Ake Holmlander, Christopher Cantillo) - Fran klart till halvklart - 2011, FLAC (tracks+.cue), lossless

(Avant-Garde Jazz / Free Improvisation) [CD] Parti & Minut (Johan Jonsson, Per-Ake Holmlander, Christopher Cantillo) - Fran klart till halvklart - 2011, FLAC (tracks+.cue), lossless
Треклист:
Parti & Minut - Från klart till halvklart
Жанр: Avant-Garde Jazz / Free Improvisation
Носитель: CD
Страна-производитель диска (релиза): Sweden
Год издания: 2011
Издатель (лейбл): El Dingo Records
Номер по каталогу: ELDCD 04
Аудиокодек: FLAC (*.flac)
Тип рипа: tracks+.cue
Битрейт аудио: lossless
Продолжительность: 00:41:14
Источник (релизер): what.cd / спасибо kivius
Наличие сканов в содержимом раздачи: да, низкого качества
Треклист:
1. Karate (Johan Jonsson) (02:32)
2. Inri (Alexander von Schlippenbach) (04:18)
3. Ett Hörn (Johan Jonsson) (02:53)
4. Jag har inga kompisar (Johan Jonsson) (02:34)
5. Baby talk (James "Blood" Ulmer) (04:25)
6. Maine (Roswell Rudd) (03:36)
7. Svarta grottan (Johan Jonsson) (06:20)
8. Vem där? (Johan Jonsson) (02:41)
9. Cameloupe (Amina Claudine Myers) (05:53)
10. Valborg (Johan Jonsson) (02:56)
11. Dansmusik (Johan Jonsson) (03:22)
Доп. информация:
Musicians:
Johan Jonsson - trumpet
Per-Åke Holmlander - tuba
Christopher Cantillo - drums
Insp 14 december 2010 och 25 augusti 2011, Stockholm
Parti & Minut - Från klart till halvklart eldingorecords.com
 
... photo ...
 
... info ...
Parti & Minut is one of the freshest sounds to emerge from the Swedish jazz scene in years. The group consists of Johan Johansson (trumpet), Christopher Cantillo (drums) oand Pär-Åke Holmlander (tuba). Three musicians with a wide range of influences and an eagerness to make themselves heard. This creative mix has created one of the most interesting groups in Swedish jazz at the moment. This debut will beyond doubt catch the attention off many curious listeners. Besides fantastic original songs they have hand picked some of the best tunes from the 70’s creative jazz scene. A new, brave sound has arrived!
~ pluggedrecords.com
 
Лог создания рипа
Exact Audio Copy V1.0 beta 3 from 29. August 2011
EAC extraction logfile from 5. April 2014, 10:30
Parti & Minut / Från klart till halvklart
Used drive : TSSTcorpCDDVDW SE-208DB Adapter: 2 ID: 0
Read mode : Secure
Utilize accurate stream : Yes
Defeat audio cache : Yes
Make use of C2 pointers : No
Read offset correction : 6
Overread into Lead-In and Lead-Out : No
Fill up missing offset samples with silence : Yes
Delete leading and trailing silent blocks : No
Null samples used in CRC calculations : Yes
Used interface : Native Win32 interface for Win NT & 2000
Gap handling : Appended to previous track
Used output format : User Defined Encoder
Selected bitrate : 1024 kBit/s
Quality : High
Add ID3 tag : No
Command line compressor : C:\Program Files (x86)\Exact Audio Copy\FLAC\FLAC.EXE
Additional command line options : -8 -V -T "ARTIST=%artist%" -T "TITLE=%title%" -T "ALBUM=%albumtitle%" -T "DATE=%year%" -T "TRACKNUMBER=%tracknr%" -T "GENRE=%genre%" -T "PERFORMER=%albuminterpret%" -T "COMPOSER=%composer%" %haslyrics%--tag-from-file=LYRICS="%lyricsfile%"%haslyrics% -T "ALBUMARTIST=%albumartist%" -T "DISCNUMBER=%cdnumber%" -T "TOTALDISCS=%totalcds%" -T "TOTALTRACKS=%numtracks%" -T "COMMENT=%comment%" %source% -o %dest%
TOC of the extracted CD
Track | Start | Length | Start sector | End sector
---------------------------------------------------------
1 | 0:00.00 | 2:32.50 | 0 | 11449
2 | 2:32.50 | 4:18.45 | 11450 | 30844
3 | 6:51.20 | 2:53.45 | 30845 | 43864
4 | 9:44.65 | 2:34.25 | 43865 | 55439
5 | 12:19.15 | 4:25.23 | 55440 | 75337
6 | 16:44.38 | 3:36.57 | 75338 | 91594
7 | 20:21.20 | 6:20.16 | 91595 | 120110
8 | 26:41.36 | 2:41.25 | 120111 | 132210
9 | 29:22.61 | 5:33.21 | 132211 | 157206
10 | 34:56.07 | 2:56.32 | 157207 | 170438
11 | 37:52.39 | 3:22.27 | 170439 | 185615
Track 1
Filename W:\_MUSIC ALL\Parti & Minut - Fran klart till halvklart (2011) [FLAC]\01. Karate.wav
Pre-gap length 0:00:02.00
Peak level 97.9 %
Extraction speed 2.3 X
Track quality 100.0 %
Test CRC BBBFAEE3
Copy CRC BBBFAEE3
Accurately ripped (confidence 1) [A53C9FD1] (AR v2)
Copy OK
Track 2
Filename W:\_MUSIC ALL\Parti & Minut - Fran klart till halvklart (2011) [FLAC]\02. Inri.wav
Peak level 97.7 %
Extraction speed 2.2 X
Track quality 99.9 %
Test CRC 8FEB12CF
Copy CRC 8FEB12CF
Accurately ripped (confidence 1) [A892C9ED] (AR v2)
Copy OK
Track 3
Filename W:\_MUSIC ALL\Parti & Minut - Fran klart till halvklart (2011) [FLAC]\03. Ett Hörn.wav
Peak level 97.6 %
Extraction speed 2.1 X
Track quality 99.9 %
Test CRC 9E6B70EE
Copy CRC 9E6B70EE
Accurately ripped (confidence 1) [8709F156] (AR v2)
Copy OK
Track 4
Filename W:\_MUSIC ALL\Parti & Minut - Fran klart till halvklart (2011) [FLAC]\04. Jag har inga kompisar.wav
Peak level 97.7 %
Extraction speed 2.1 X
Track quality 99.9 %
Test CRC 71FB25D2
Copy CRC 71FB25D2
Accurately ripped (confidence 1) [D3BDB233] (AR v2)
Copy OK
Track 5
Filename W:\_MUSIC ALL\Parti & Minut - Fran klart till halvklart (2011) [FLAC]\05. Baby talk.wav
Peak level 97.7 %
Extraction speed 3.2 X
Track quality 100.0 %
Test CRC 2768EF02
Copy CRC 2768EF02
Accurately ripped (confidence 1) [50BE90E8] (AR v2)
Copy OK
Track 6
Filename W:\_MUSIC ALL\Parti & Minut - Fran klart till halvklart (2011) [FLAC]\06. Maine.wav
Peak level 97.6 %
Extraction speed 2.7 X
Track quality 99.9 %
Test CRC FF9653CF
Copy CRC FF9653CF
Accurately ripped (confidence 1) [E558D807] (AR v2)
Copy OK
Track 7
Filename W:\_MUSIC ALL\Parti & Minut - Fran klart till halvklart (2011) [FLAC]\07. Svarta grottan.wav
Peak level 97.7 %
Extraction speed 3.8 X
Track quality 100.0 %
Test CRC 4C120AAF
Copy CRC 4C120AAF
Accurately ripped (confidence 1) [E8D36FFC] (AR v2)
Copy OK
Track 8
Filename W:\_MUSIC ALL\Parti & Minut - Fran klart till halvklart (2011) [FLAC]\08. Vem där.wav
Peak level 99.1 %
Extraction speed 2.7 X
Track quality 99.9 %
Test CRC 9B5F7BB1
Copy CRC 9B5F7BB1
Accurately ripped (confidence 1) [AF341520] (AR v2)
Copy OK
Track 9
Filename W:\_MUSIC ALL\Parti & Minut - Fran klart till halvklart (2011) [FLAC]\09. Cameloupe.wav
Peak level 97.7 %
Extraction speed 3.5 X
Track quality 99.9 %
Test CRC 0C425EE7
Copy CRC 0C425EE7
Accurately ripped (confidence 1) [F1C53C60] (AR v2)
Copy OK
Track 10
Filename W:\_MUSIC ALL\Parti & Minut - Fran klart till halvklart (2011) [FLAC]\10. Valborg.wav
Peak level 97.6 %
Extraction speed 3.9 X
Track quality 100.0 %
Test CRC 1242E3F9
Copy CRC 1242E3F9
Accurately ripped (confidence 1) [2466319D] (AR v2)
Copy OK
Track 11
Filename W:\_MUSIC ALL\Parti & Minut - Fran klart till halvklart (2011) [FLAC]\11. Dansmusik.wav
Peak level 97.9 %
Extraction speed 4.1 X
Track quality 100.0 %
Test CRC 4F2CA96F
Copy CRC 4F2CA96F
Accurately ripped (confidence 1) [ABEF5CB7] (AR v2)
Copy OK
All tracks accurately ripped
No errors occurred
End of status report
---- CUETools DB Plugin V2.1.3
[CTDB TOCID: RVtqkO8Wyg57nNUB2rSQm0gIpJc-] found, Submit result: RVtqkO8Wyg57nNUB2rSQm0gIpJc- has been confirmed
[604ed989] (1/1) Accurately ripped
==== Log checksum 76467027F401F619E8EAB14ACC043B3D201726BCD73689BFA060C64D530B1766 ====
 
Содержание индексной карты (.CUE)
REM GENRE Jazz
REM DATE 2011
REM DISCID 8009AA0B
REM COMMENT "ExactAudioCopy v1.0b3"
CATALOG 7320470152515
PERFORMER "Parti & Minut"
TITLE "Fran klart till halvklart"
FILE "01. Karate.wav" WAVE
TRACK 01 AUDIO
TITLE "Karate"
PERFORMER "Parti & Minut"
ISRC SEXQG1100101
INDEX 01 00:00:00
FILE "02. Inri.wav" WAVE
TRACK 02 AUDIO
TITLE "Inri"
PERFORMER "Parti & Minut"
ISRC SEXQG1100101
INDEX 01 00:00:00
FILE "03. Ett Horn.wav" WAVE
TRACK 03 AUDIO
TITLE "Ett Horn"
PERFORMER "Parti & Minut"
ISRC SEXQG1100103
INDEX 01 00:00:00
FILE "04. Jag har inga kompisar.wav" WAVE
TRACK 04 AUDIO
TITLE "Jag har inga kompisar"
PERFORMER "Parti & Minut"
ISRC SEXQG1100104
INDEX 01 00:00:00
FILE "05. Baby talk.wav" WAVE
TRACK 05 AUDIO
TITLE "Baby talk"
PERFORMER "Parti & Minut"
ISRC SEXQG1100105
INDEX 01 00:00:00
FILE "06. Maine.wav" WAVE
TRACK 06 AUDIO
TITLE "Maine"
PERFORMER "Parti & Minut"
ISRC SEXQG1100106
INDEX 01 00:00:00
FILE "07. Svarta grottan.wav" WAVE
TRACK 07 AUDIO
TITLE "Svarta grottan"
PERFORMER "Parti & Minut"
ISRC SEXQG1100107
INDEX 01 00:00:00
FILE "08. Vem dar.wav" WAVE
TRACK 08 AUDIO
TITLE "Vem dar?"
PERFORMER "Parti & Minut"
ISRC SEXQG1100108
INDEX 01 00:00:00
FILE "09. Cameloupe.wav" WAVE
TRACK 09 AUDIO
TITLE "Cameloupe"
PERFORMER "Parti & Minut"
ISRC SEXQG1100109
INDEX 01 00:00:00
FILE "10. Valborg.wav" WAVE
TRACK 10 AUDIO
TITLE "Valborg"
PERFORMER "Parti & Minut"
ISRC SEXQG1100109
INDEX 01 00:00:00
FILE "11. Dansmusik.wav" WAVE
TRACK 11 AUDIO
TITLE "Dansmusik"
PERFORMER "Parti & Minut"
ISRC SEXQG1100111
INDEX 01 00:00:00
По всем вопросам пишите личное сообщение пользователю M0p94ok.
09:55
278
Нет комментариев. Ваш будет первым!