Вы используете незарегистрированную версию компонента "Вкладки"!

Поиск

(Avant-Garde Jazz) [CD] Ran Blake - Epistrophy - 1991, FLAC (tracks+.cue), lossless

(Avant-Garde Jazz) [CD] Ran Blake - Epistrophy - 1991, FLAC (tracks+.cue), lossless
Треклист:
Ran Blake - Epistrophy
Жанр: Avant-Garde Jazz
Носитель: CD
Страна-производитель диска (релиза): Италия
Год издания: 1991
Издатель (лейбл): Soul Note Records
Номер по каталогу: 121177-2
Аудиокодек: FLAC (*.flac)
Тип рипа: tracks+.cue
Битрейт аудио: lossless
Продолжительность: 54:26
Источник (релизер): grumpycat (what)
Наличие сканов в содержимом раздачи: нет
Треклист:
01. Epistrophy (Clarke-Monk) - 3:08
02. Thelonious (Monk) - 5:18
03. April in Paris (Duke-Harburg) - 3:07
04. Off Minor (Monk) - 1:39
05. Criss-Cross (Monk) - 2:19
06. Reflections (Monk) - 3:24
07. Epistrophy (Clarke-Monk) - 3:55
08. 'Round Midnight (Monk) - 5:50
09. Hornin' In (Monk) - 0:56
10. Just a Gigolo (Brammer-Casucci) - 3:10
11. Nice Work If You Can Get It (Gershwin-Gershwin) - 3:47
12. Ruby, My Dear (Monk) - 3:00
13. Monk's Mood (Monk) - 5:12
14. Smoke Gets in Your Eyes (Harbach-Kern) - 2:48
15. Eronel (Monk) - 2:27
16. Misterioso (Monk) - 3:08
17. Epistrophy (Clarke-Monk) - 1:18
Состав:
Ran Blake - piano
Recorded at Barigozzi Studio, Milano on April 19-20, 1991.
 
Лог создания рипа
X Lossless Decoder version 20141129 (148.1)
XLD extraction logfile from 2015-02-21 01:58:36 -0500
Ran Blake / Epistrophy
Used drive : MATSHITA DVD-R UJ-8A8 (revision HB14)
Media type : Pressed CD
Ripper mode : XLD Secure Ripper
Disable audio cache : OK for the drive with a cache less than 1375KiB
Make use of C2 pointers : NO
Read offset correction : 102
Max retry count : 100
Gap status : Analyzed, Appended (except HTOA)
TOC of the extracted CD
Track | Start | Length | Start sector | End sector
---------------------------------------------------------
1 | 00:00:33 | 03:08:20 | 33 | 14152
2 | 03:08:53 | 05:18:30 | 14153 | 38032
3 | 08:27:08 | 03:06:72 | 38033 | 52054
4 | 11:34:05 | 01:39:03 | 52055 | 59482
5 | 13:13:08 | 02:18:67 | 59483 | 69899
6 | 15:32:00 | 03:24:08 | 69900 | 85207
7 | 18:56:08 | 03:55:30 | 85208 | 102862
8 | 22:51:38 | 05:50:37 | 102863 | 129149
9 | 28:42:00 | 00:56:05 | 129150 | 133354
10 | 29:38:05 | 03:10:03 | 133355 | 147607
11 | 32:48:08 | 03:46:42 | 147608 | 164599
12 | 36:34:50 | 02:59:58 | 164600 | 178082
13 | 39:34:33 | 05:12:30 | 178083 | 201512
14 | 44:46:63 | 02:47:47 | 201513 | 214084
15 | 47:34:35 | 02:27:23 | 214085 | 225132
16 | 50:01:58 | 03:08:02 | 225133 | 239234
17 | 53:09:60 | 01:17:48 | 239235 | 245057
AccurateRip Summary (DiscID: 0023169c-01baa5ac-040cc311)
Track 01 : OK (v1+v2, confidence 2/2)
Track 02 : OK (v1+v2, confidence 2/2)
Track 03 : OK (v1+v2, confidence 2/2)
Track 04 : OK (v1+v2, confidence 2/2)
Track 05 : OK (v1+v2, confidence 2/2)
Track 06 : OK (v1+v2, confidence 2/2)
Track 07 : OK (v1+v2, confidence 2/2)
Track 08 : OK (v1+v2, confidence 2/2)
Track 09 : OK (v1+v2, confidence 2/2)
Track 10 : OK (v1+v2, confidence 2/2)
Track 11 : OK (v1+v2, confidence 2/2)
Track 12 : OK (v1+v2, confidence 2/2)
Track 13 : OK (v1+v2, confidence 2/2)
Track 14 : OK (v1+v2, confidence 2/2)
Track 15 : OK (v1+v2, confidence 2/2)
Track 16 : OK (v1+v2, confidence 2/2)
Track 17 : OK (v1+v2, confidence 2/2)
->All tracks accurately ripped.
All Tracks
Album gain : 1.27 dB
Peak : 0.999969
Statistics
Read error : 0
Jitter error (maybe fixed) : 0
Retry sector count : 0
Damaged sector count : 0
Track 01
Filename : /Users/XLD_rips/Ran Blake - Epistrophy (1992) [FLAC]/01-01 Epistrophy.flac
Pre-gap length : 00:02:33
Track gain : -0.83 dB
Peak : 0.999969
CRC32 hash (test run) : EE271B0A
CRC32 hash : EE271B0A
CRC32 hash (skip zero) : BC9F08DF
AccurateRip v1 signature : 77E3932C
AccurateRip v2 signature : A04550A2
->Accurately ripped (v1+v2, confidence 1+1/2)
Statistics
Read error : 0
Jitter error (maybe fixed) : 0
Retry sector count : 0
Damaged sector count : 0
Track 02
Filename : /Users/XLD_rips/Ran Blake - Epistrophy (1992) [FLAC]/01-02 Thelonious.flac
Track gain : 1.21 dB
Peak : 0.905334
CRC32 hash (test run) : C0C616C9
CRC32 hash : C0C616C9
CRC32 hash (skip zero) : 34817F2E
AccurateRip v1 signature : EAEEDC7D
AccurateRip v2 signature : C7FFC333
->Accurately ripped (v1+v2, confidence 1+1/2)
Statistics
Read error : 0
Jitter error (maybe fixed) : 0
Retry sector count : 0
Damaged sector count : 0
Track 03
Filename : /Users/XLD_rips/Ran Blake - Epistrophy (1992) [FLAC]/01-03 April In Paris.flac
Track gain : 1.56 dB
Peak : 0.764282
CRC32 hash (test run) : E71B4726
CRC32 hash : E71B4726
CRC32 hash (skip zero) : C9E99F2D
AccurateRip v1 signature : CD2C7983
AccurateRip v2 signature : C3D61608
->Accurately ripped (v1+v2, confidence 1+1/2)
Statistics
Read error : 0
Jitter error (maybe fixed) : 0
Retry sector count : 0
Damaged sector count : 0
Track 04
Filename : /Users/XLD_rips/Ran Blake - Epistrophy (1992) [FLAC]/01-04 Off Minor.flac
Track gain : 1.40 dB
Peak : 0.737946
CRC32 hash (test run) : C330782D
CRC32 hash : C330782D
CRC32 hash (skip zero) : 74142FC1
AccurateRip v1 signature : 973FE52C
AccurateRip v2 signature : 64317F0D
->Accurately ripped (v1+v2, confidence 1+1/2)
Statistics
Read error : 0
Jitter error (maybe fixed) : 0
Retry sector count : 0
Damaged sector count : 0
Track 05
Filename : /Users/XLD_rips/Ran Blake - Epistrophy (1992) [FLAC]/01-05 Criss-cross.flac
Track gain : 2.03 dB
Peak : 0.734436
CRC32 hash (test run) : B92DB4E9
CRC32 hash : B92DB4E9
CRC32 hash (skip zero) : 6C05CFDE
AccurateRip v1 signature : EB92DED2
AccurateRip v2 signature : 1218D698
->Accurately ripped (v1+v2, confidence 1+1/2)
Statistics
Read error : 0
Jitter error (maybe fixed) : 0
Retry sector count : 0
Damaged sector count : 0
Track 06
Filename : /Users/XLD_rips/Ran Blake - Epistrophy (1992) [FLAC]/01-06 Reflections.flac
Track gain : 2.04 dB
Peak : 0.783997
CRC32 hash (test run) : D9929BB9
CRC32 hash : D9929BB9
CRC32 hash (skip zero) : CCFA380D
AccurateRip v1 signature : 9A285939
AccurateRip v2 signature : DF96A46C
->Accurately ripped (v1+v2, confidence 1+1/2)
Statistics
Read error : 0
Jitter error (maybe fixed) : 0
Retry sector count : 0
Damaged sector count : 0
Track 07
Filename : /Users/XLD_rips/Ran Blake - Epistrophy (1992) [FLAC]/01-07 Epistrophy.flac
Track gain : 0.76 dB
Peak : 0.901855
CRC32 hash (test run) : E1E3E552
CRC32 hash : E1E3E552
CRC32 hash (skip zero) : B3C65DD0
AccurateRip v1 signature : 13CDFC1B
AccurateRip v2 signature : DD920491
->Accurately ripped (v1+v2, confidence 1+1/2)
Statistics
Read error : 0
Jitter error (maybe fixed) : 0
Retry sector count : 0
Damaged sector count : 0
Track 08
Filename : /Users/XLD_rips/Ran Blake - Epistrophy (1992) [FLAC]/01-08 Round About Midnight.flac
Track gain : 1.11 dB
Peak : 0.867371
CRC32 hash (test run) : 2DEAA254
CRC32 hash : 2DEAA254
CRC32 hash (skip zero) : 89B5B54C
AccurateRip v1 signature : 36AE8C9E
AccurateRip v2 signature : 1ACE32AB
->Accurately ripped (v1+v2, confidence 1+1/2)
Statistics
Read error : 0
Jitter error (maybe fixed) : 0
Retry sector count : 0
Damaged sector count : 0
Track 09
Filename : /Users/XLD_rips/Ran Blake - Epistrophy (1992) [FLAC]/01-09 Hornin' In.flac
Track gain : -0.01 dB
Peak : 0.731628
CRC32 hash (test run) : ECF16FE5
CRC32 hash : ECF16FE5
CRC32 hash (skip zero) : F7D9954D
AccurateRip v1 signature : 8326F28B
AccurateRip v2 signature : 727E331C
->Accurately ripped (v1+v2, confidence 1+1/2)
Statistics
Read error : 0
Jitter error (maybe fixed) : 0
Retry sector count : 0
Damaged sector count : 0
Track 10
Filename : /Users/XLD_rips/Ran Blake - Epistrophy (1992) [FLAC]/01-10 Just A Gigolo.flac
Track gain : 2.60 dB
Peak : 0.681305
CRC32 hash (test run) : FC959A47
CRC32 hash : FC959A47
CRC32 hash (skip zero) : FC8676BB
AccurateRip v1 signature : D2B41E33
AccurateRip v2 signature : 2EE8BB03
->Accurately ripped (v1+v2, confidence 1+1/2)
Statistics
Read error : 0
Jitter error (maybe fixed) : 0
Retry sector count : 0
Damaged sector count : 0
Track 11
Filename : /Users/XLD_rips/Ran Blake - Epistrophy (1992) [FLAC]/01-11 Nice Work If You Can Get It.flac
Track gain : 2.01 dB
Peak : 0.720978
CRC32 hash (test run) : 963CF169
CRC32 hash : 963CF169
CRC32 hash (skip zero) : 8605FBFC
AccurateRip v1 signature : 55DD168D
AccurateRip v2 signature : 8458D401
->Accurately ripped (v1+v2, confidence 1+1/2)
Statistics
Read error : 0
Jitter error (maybe fixed) : 0
Retry sector count : 0
Damaged sector count : 0
Track 12
Filename : /Users/XLD_rips/Ran Blake - Epistrophy (1992) [FLAC]/01-12 Ruby My Dear.flac
Track gain : 2.24 dB
Peak : 0.804138
CRC32 hash (test run) : D23EB313
CRC32 hash : D23EB313
CRC32 hash (skip zero) : 19600826
AccurateRip v1 signature : AFE5D745
AccurateRip v2 signature : AF4995EC
->Accurately ripped (v1+v2, confidence 1+1/2)
Statistics
Read error : 0
Jitter error (maybe fixed) : 0
Retry sector count : 0
Damaged sector count : 0
Track 13
Filename : /Users/XLD_rips/Ran Blake - Epistrophy (1992) [FLAC]/01-13 Monk's Mood.flac
Track gain : 2.41 dB
Peak : 0.901398
CRC32 hash (test run) : 33C9AAA1
CRC32 hash : 33C9AAA1
CRC32 hash (skip zero) : ECD2DD3F
AccurateRip v1 signature : C7D428CA
AccurateRip v2 signature : 0DF1DEFC
->Accurately ripped (v1+v2, confidence 1+1/2)
Statistics
Read error : 0
Jitter error (maybe fixed) : 0
Retry sector count : 0
Damaged sector count : 0
Track 14
Filename : /Users/XLD_rips/Ran Blake - Epistrophy (1992) [FLAC]/01-14 Smoke Gets In Your Eyes.flac
Track gain : 2.38 dB
Peak : 0.765015
CRC32 hash (test run) : 76B85AF0
CRC32 hash : 76B85AF0
CRC32 hash (skip zero) : 5C8B5A2C
AccurateRip v1 signature : D09F3B36
AccurateRip v2 signature : 211C59AD
->Accurately ripped (v1+v2, confidence 1+1/2)
Statistics
Read error : 0
Jitter error (maybe fixed) : 0
Retry sector count : 0
Damaged sector count : 0
Track 15
Filename : /Users/XLD_rips/Ran Blake - Epistrophy (1992) [FLAC]/01-15 Eronel.flac
Track gain : 1.67 dB
Peak : 0.792816
CRC32 hash (test run) : 71D4F7B4
CRC32 hash : 71D4F7B4
CRC32 hash (skip zero) : 9D05488E
AccurateRip v1 signature : 328F7F96
AccurateRip v2 signature : A58E0EC3
->Accurately ripped (v1+v2, confidence 1+1/2)
Statistics
Read error : 0
Jitter error (maybe fixed) : 0
Retry sector count : 0
Damaged sector count : 0
Track 16
Filename : /Users/XLD_rips/Ran Blake - Epistrophy (1992) [FLAC]/01-16 Misterioso.flac
Track gain : 4.73 dB
Peak : 0.536102
CRC32 hash (test run) : 2AE7549F
CRC32 hash : 2AE7549F
CRC32 hash (skip zero) : 195A678F
AccurateRip v1 signature : F71DC4B2
AccurateRip v2 signature : B253B416
->Accurately ripped (v1+v2, confidence 1+1/2)
Statistics
Read error : 0
Jitter error (maybe fixed) : 0
Retry sector count : 0
Damaged sector count : 0
Track 17
Filename : /Users/XLD_rips/Ran Blake - Epistrophy (1992) [FLAC]/01-17 Epistrophy.flac
Track gain : -1.33 dB
Peak : 0.875793
CRC32 hash (test run) : 950C4798
CRC32 hash : 950C4798
CRC32 hash (skip zero) : 929A99A7
AccurateRip v1 signature : FB3F8317
AccurateRip v2 signature : 7E9657B4
->Accurately ripped (v1+v2, confidence 1+1/2)
Statistics
Read error : 0
Jitter error (maybe fixed) : 0
Retry sector count : 0
Damaged sector count : 0
No errors occurred
End of status report
-----BEGIN XLD SIGNATURE-----
6oLxFkmYUr4dUCTVECLqOyDt0bS65AfqJrYmIrCXLbS_07M5FuBLEavWktCYCQEIANk0TWA6uOd.eKZ8k9R0VT4IH5uCoDMdsVgW.NG
-----END XLD SIGNATURE-----
 
Содержание индексной карты (.CUE)
TITLE "Epistrophy"
PERFORMER "Ran Blake"
REM GENRE "Jazz"
REM DATE "1991"
REM DISCID 040CC311
REM REPLAYGAIN_ALBUM_GAIN 1.27 dB
REM REPLAYGAIN_ALBUM_PEAK 0.999969
FILE "01 - Epistrophy.flac" WAVE
TRACK 01 AUDIO
TITLE "Epistrophy"
REM REPLAYGAIN_TRACK_GAIN -0.83 dB
REM REPLAYGAIN_TRACK_PEAK 0.999969
PREGAP 00:00:33
INDEX 01 00:00:00
FILE "02 - Thelonious.flac" WAVE
TRACK 02 AUDIO
TITLE "Thelonious"
REM REPLAYGAIN_TRACK_GAIN 1.21 dB
REM REPLAYGAIN_TRACK_PEAK 0.905334
INDEX 01 00:00:00
FILE "03 - April in Paris.flac" WAVE
TRACK 03 AUDIO
TITLE "April in Paris"
REM REPLAYGAIN_TRACK_GAIN 1.56 dB
REM REPLAYGAIN_TRACK_PEAK 0.764282
INDEX 01 00:00:00
FILE "04 - Off Minor.flac" WAVE
TRACK 04 AUDIO
TITLE "Off Minor"
REM REPLAYGAIN_TRACK_GAIN 1.40 dB
REM REPLAYGAIN_TRACK_PEAK 0.737946
INDEX 01 00:00:00
FILE "05 - Criss-Cross.flac" WAVE
TRACK 05 AUDIO
TITLE "Criss-Cross"
REM REPLAYGAIN_TRACK_GAIN 2.03 dB
REM REPLAYGAIN_TRACK_PEAK 0.734436
INDEX 01 00:00:00
FILE "06 - Reflections.flac" WAVE
TRACK 06 AUDIO
TITLE "Reflections"
REM REPLAYGAIN_TRACK_GAIN 2.04 dB
REM REPLAYGAIN_TRACK_PEAK 0.783997
INDEX 01 00:00:00
FILE "07 - Epistrophy.flac" WAVE
TRACK 07 AUDIO
TITLE "Epistrophy"
REM REPLAYGAIN_TRACK_GAIN 0.76 dB
REM REPLAYGAIN_TRACK_PEAK 0.901855
INDEX 01 00:00:00
FILE "08 - 'Round Midnight.flac" WAVE
TRACK 08 AUDIO
TITLE "'Round Midnight"
REM REPLAYGAIN_TRACK_GAIN 1.11 dB
REM REPLAYGAIN_TRACK_PEAK 0.867371
INDEX 01 00:00:00
FILE "09 - Hornin' In.flac" WAVE
TRACK 09 AUDIO
TITLE "Hornin' In"
REM REPLAYGAIN_TRACK_GAIN -0.01 dB
REM REPLAYGAIN_TRACK_PEAK 0.731628
INDEX 01 00:00:00
FILE "10 - Just a Gigolo.flac" WAVE
TRACK 10 AUDIO
TITLE "Just a Gigolo"
REM REPLAYGAIN_TRACK_GAIN 2.60 dB
REM REPLAYGAIN_TRACK_PEAK 0.681305
INDEX 01 00:00:00
FILE "11 - Nice Work If You Can Get It.flac" WAVE
TRACK 11 AUDIO
TITLE "Nice Work If You Can Get It"
REM REPLAYGAIN_TRACK_GAIN 2.01 dB
REM REPLAYGAIN_TRACK_PEAK 0.720978
INDEX 01 00:00:00
FILE "12 - Ruby, My Dear.flac" WAVE
TRACK 12 AUDIO
TITLE "Ruby, My Dear"
REM REPLAYGAIN_TRACK_GAIN 2.24 dB
REM REPLAYGAIN_TRACK_PEAK 0.804138
INDEX 01 00:00:00
FILE "13 - Monk's Mood.flac" WAVE
TRACK 13 AUDIO
TITLE "Monk's Mood"
REM REPLAYGAIN_TRACK_GAIN 2.41 dB
REM REPLAYGAIN_TRACK_PEAK 0.901398
INDEX 01 00:00:00
FILE "14 - Smoke Gets in Your Eyes.flac" WAVE
TRACK 14 AUDIO
TITLE "Smoke Gets in Your Eyes"
REM REPLAYGAIN_TRACK_GAIN 2.38 dB
REM REPLAYGAIN_TRACK_PEAK 0.765015
INDEX 01 00:00:00
FILE "15 - Eronel.flac" WAVE
TRACK 15 AUDIO
TITLE "Eronel"
REM REPLAYGAIN_TRACK_GAIN 1.67 dB
REM REPLAYGAIN_TRACK_PEAK 0.792816
INDEX 01 00:00:00
FILE "16 - Misterioso.flac" WAVE
TRACK 16 AUDIO
TITLE "Misterioso"
REM REPLAYGAIN_TRACK_GAIN 4.73 dB
REM REPLAYGAIN_TRACK_PEAK 0.536102
INDEX 01 00:00:00
FILE "17 - Epistrophy.flac" WAVE
TRACK 17 AUDIO
TITLE "Epistrophy"
REM REPLAYGAIN_TRACK_GAIN -1.33 dB
REM REPLAYGAIN_TRACK_PEAK 0.875793
INDEX 01 00:00:00
 
Отчет CUETools
[CUETools log; Date: 02.03.2015 16:40:34; Version: 2.1.5]
Pregap length 00:00:33.
[CTDB TOCID: vMvB9ZzM05kP9l5s_6AK.t1fZXI-] found.
Track | CTDB Status
1 | (2/2) Accurately ripped
2 | (2/2) Accurately ripped
3 | (2/2) Accurately ripped
4 | (2/2) Accurately ripped
5 | (2/2) Accurately ripped
6 | (2/2) Accurately ripped
7 | (2/2) Accurately ripped
8 | (2/2) Accurately ripped
9 | (2/2) Accurately ripped
10 | (2/2) Accurately ripped
11 | (2/2) Accurately ripped
12 | (2/2) Accurately ripped
13 | (2/2) Accurately ripped
14 | (2/2) Accurately ripped
15 | (2/2) Accurately ripped
16 | (2/2) Accurately ripped
17 | (2/2) Accurately ripped
[AccurateRip ID: 0023169c-01baa5ac-040cc311] found.
Track [ CRC | V2 ] Status
01 [77e3932c|a04550a2] (1+1/2) Accurately ripped
02 [eaeedc7d|c7ffc333] (1+1/2) Accurately ripped
03 [cd2c7983|c3d61608] (1+1/2) Accurately ripped
04 [973fe52c|64317f0d] (1+1/2) Accurately ripped
05 [eb92ded2|1218d698] (1+1/2) Accurately ripped
06 [9a285939|df96a46c] (1+1/2) Accurately ripped
07 [13cdfc1b|dd920491] (1+1/2) Accurately ripped
08 [36ae8c9e|1ace32ab] (1+1/2) Accurately ripped
09 [8326f28b|727e331c] (1+1/2) Accurately ripped
10 [d2b41e33|2ee8bb03] (1+1/2) Accurately ripped
11 [55dd168d|8458d401] (1+1/2) Accurately ripped
12 [afe5d745|af4995ec] (1+1/2) Accurately ripped
13 [c7d428ca|0df1defc] (1+1/2) Accurately ripped
14 [d09f3b36|211c59ad] (1+1/2) Accurately ripped
15 [328f7f96|a58e0ec3] (1+1/2) Accurately ripped
16 [f71dc4b2|b253b416] (1+1/2) Accurately ripped
17 [fb3f8317|7e9657b4] (1+1/2) Accurately ripped
Track Peak [ CRC32 ] [W/O NULL]
-- 100,0 [B9F33381] [69B8386D]
01 100,0 [EE271B0A] [BC9F08DF]
02 90,5 [C0C616C9] [34817F2E]
03 76,4 [E71B4726] [C9E99F2D]
04 73,7 [C330782D] [74142FC1]
05 73,4 [B92DB4E9] [6C05CFDE]
06 78,4 [D9929BB9] [CCFA380D]
07 90,1 [E1E3E552] [B3C65DD0]
08 86,7 [2DEAA254] [89B5B54C]
09 73,1 [ECF16FE5] [F7D9954D]
10 68,1 [FC959A47] [FC8676BB]
11 72,0 [963CF169] [8605FBFC]
12 80,4 [D23EB313] [19600826]
13 90,1 [33C9AAA1] [ECD2DD3F]
14 76,5 [76B85AF0] [5C8B5A2C]
15 79,2 [71D4F7B4] [9D05488E]
16 53,6 [2AE7549F] [195A678F]
17 87,5 [950C4798] [929A99A7]
 
Review by Scott Yanow
Ran Blake's re-interpretations of 12 Thelonious Monk songs and four standards that Monk enjoyed playing are quite different than everyone else's. He states the basic melody but, rather than improvising off the chord changes, Blake's flights on these solo piano performances stay close to the mood of the melodies, alternating silence with unexpected emotional flurries.
По всем вопросам пишите личное сообщение пользователю M0p94ok.
09:54
162
Нет комментариев. Ваш будет первым!