Поиск

(Avant-Garde Jazz) [CD] Ran Blake - Wende - 1976 (2007), FLAC (tracks+.cue), lossless

(Avant-Garde Jazz) [CD] Ran Blake - Wende - 1976 (2007), FLAC (tracks+.cue), lossless
Треклист:
Ran Blake - Wende
Жанр: Avant-Garde Jazz
Носитель: CD
Страна-производитель диска (релиза): США
Год издания: 2007
Издатель (лейбл): Owl Records/Sunnyside Records/Universal Music
Номер по каталогу: SSC 3516
Аудиокодек: FLAC (*.flac)
Тип рипа: tracks+.cue
Битрейт аудио: lossless
Продолжительность: 36:17
Источник (релизер): grumpycat (what)
Наличие сканов в содержимом раздачи: нет
Треклист:
01. Field Cry (Blake) - 1:49
02. Wende (Blake) - 3:51
03. Thursday (Blake) - 3:36
04. Aftermath (Blake) - 1:06
05. Three Personalities: Votichenko, Cadillac Joe, Amelia (Blake) - 2:20
06. East Wind (Blake) - 2:14
07. How 'Bout That (take 2) (Blake) - 2:54
08. Jim Crow (Blake) - 3:09
09. Arline (Blake) - 3:24
10. Blues for Wheatleigh (Blake) - 3:15
11. Silver Fox (Blake) - 3:46
12. Jinxey's (Blake) - 2:39
13. How 'Bout That (take 3) (Blake) - 2:14
Состав:
Ran Blake - piano
Recorded at Dimension Sound Studios, Boston in August 1976.
 
Лог создания рипа
X Lossless Decoder version 20141129 (148.1)
XLD extraction logfile from 2015-02-21 01:18:45 -0500
Ran Blake / Wende
Used drive : MATSHITA DVD-R UJ-8A8 (revision HB14)
Media type : Pressed CD
Ripper mode : XLD Secure Ripper
Disable audio cache : OK for the drive with a cache less than 1375KiB
Make use of C2 pointers : NO
Read offset correction : 102
Max retry count : 100
Gap status : Analyzed, Appended (except HTOA)
TOC of the extracted CD
Track | Start | Length | Start sector | End sector
---------------------------------------------------------
1 | 00:00:00 | 01:49:07 | 0 | 8181
2 | 01:49:07 | 03:51:33 | 8182 | 25539
3 | 05:40:40 | 03:36:32 | 25540 | 41771
4 | 09:16:72 | 01:06:18 | 41772 | 46739
5 | 10:23:15 | 02:20:30 | 46740 | 57269
6 | 12:43:45 | 02:14:22 | 57270 | 67341
7 | 14:57:67 | 02:53:45 | 67342 | 80361
8 | 17:51:37 | 03:09:13 | 80362 | 94549
9 | 21:00:50 | 03:24:20 | 94550 | 109869
10 | 24:24:70 | 03:15:25 | 109870 | 124519
11 | 27:40:20 | 03:46:12 | 124520 | 141481
12 | 31:26:32 | 02:38:50 | 141482 | 153381
13 | 34:05:07 | 02:14:18 | 153382 | 163449
AccurateRip Summary (DiscID: 0011015e-00abad9f-b508830d)
Track 01 : OK (v1+v2, confidence 2/3)
Track 02 : OK (v1+v2, confidence 2/3)
Track 03 : OK (v1+v2, confidence 2/3)
Track 04 : OK (v1+v2, confidence 2/3)
Track 05 : OK (v1+v2, confidence 2/3)
Track 06 : OK (v1+v2, confidence 2/3)
Track 07 : OK (v1+v2, confidence 2/3)
Track 08 : OK (v1+v2, confidence 2/3)
Track 09 : OK (v1+v2, confidence 2/3)
Track 10 : OK (v1+v2, confidence 2/3)
Track 11 : OK (v1+v2, confidence 2/3)
Track 12 : OK (v1+v2, confidence 2/3)
Track 13 : OK (v1+v2, confidence 2/3)
->All tracks accurately ripped.
All Tracks
Album gain : -3.67 dB
Peak : 0.993774
Statistics
Read error : 0
Jitter error (maybe fixed) : 0
Retry sector count : 0
Damaged sector count : 0
Track 01
Filename : /Users/XLD_rips/Ran Blake - Wende (2007) [FLAC]/01-01 Field Cry.flac
Pre-gap length : 00:02:00
Track gain : -2.23 dB
Peak : 0.964081
CRC32 hash (test run) : E9B862A7
CRC32 hash : E9B862A7
CRC32 hash (skip zero) : 83905CCC
AccurateRip v1 signature : D67B14A6
AccurateRip v2 signature : 709850D3
->Accurately ripped (v1+v2, confidence 1+1/3)
Statistics
Read error : 0
Jitter error (maybe fixed) : 0
Retry sector count : 0
Damaged sector count : 0
Track 02
Filename : /Users/XLD_rips/Ran Blake - Wende (2007) [FLAC]/01-02 Wende.flac
Pre-gap length : 00:03:70
Track gain : -2.74 dB
Peak : 0.981750
CRC32 hash (test run) : 6EBC0D6E
CRC32 hash : 6EBC0D6E
CRC32 hash (skip zero) : 9F42336D
AccurateRip v1 signature : FE98492E
AccurateRip v2 signature : E775BFB2
->Accurately ripped (v1+v2, confidence 1+1/3)
Statistics
Read error : 0
Jitter error (maybe fixed) : 0
Retry sector count : 0
Damaged sector count : 0
Track 03
Filename : /Users/XLD_rips/Ran Blake - Wende (2007) [FLAC]/01-03 Thursday.flac
Pre-gap length : 00:02:43
Track gain : -3.52 dB
Peak : 0.985931
CRC32 hash (test run) : F258EB61
CRC32 hash : F258EB61
CRC32 hash (skip zero) : 717ACC5C
AccurateRip v1 signature : 4E73F7D0
AccurateRip v2 signature : 2B21CEEE
->Accurately ripped (v1+v2, confidence 1+1/3)
Statistics
Read error : 0
Jitter error (maybe fixed) : 0
Retry sector count : 0
Damaged sector count : 0
Track 04
Filename : /Users/XLD_rips/Ran Blake - Wende (2007) [FLAC]/01-04 Aftermath.flac
Pre-gap length : 00:02:52
Track gain : -5.38 dB
Peak : 0.987122
CRC32 hash (test run) : 7188C817
CRC32 hash : 7188C817
CRC32 hash (skip zero) : F0EACA6C
AccurateRip v1 signature : D8C65DE0
AccurateRip v2 signature : 8C2DB455
->Accurately ripped (v1+v2, confidence 1+1/3)
Statistics
Read error : 0
Jitter error (maybe fixed) : 0
Retry sector count : 0
Damaged sector count : 0
Track 05
Filename : /Users/XLD_rips/Ran Blake - Wende (2007) [FLAC]/01-05 Three Personalities.flac
Pre-gap length : 00:04:50
Track gain : -4.49 dB
Peak : 0.993774
CRC32 hash (test run) : 66D9F604
CRC32 hash : 66D9F604
CRC32 hash (skip zero) : 830FEADF
AccurateRip v1 signature : 1342271E
AccurateRip v2 signature : F6296D3C
->Accurately ripped (v1+v2, confidence 1+1/3)
Statistics
Read error : 0
Jitter error (maybe fixed) : 0
Retry sector count : 0
Damaged sector count : 0
Track 06
Filename : /Users/XLD_rips/Ran Blake - Wende (2007) [FLAC]/01-06 East Wind.flac
Pre-gap length : 00:01:08
Track gain : 3.94 dB
Peak : 0.770020
CRC32 hash (test run) : 23E9BAA5
CRC32 hash : 23E9BAA5
CRC32 hash (skip zero) : 5CECD0AB
AccurateRip v1 signature : 64250D1E
AccurateRip v2 signature : 6AA6F7D7
->Accurately ripped (v1+v2, confidence 1+1/3)
Statistics
Read error : 0
Jitter error (maybe fixed) : 0
Retry sector count : 0
Damaged sector count : 0
Track 07
Filename : /Users/XLD_rips/Ran Blake - Wende (2007) [FLAC]/01-07 How Bout That - Take 2.flac
Pre-gap length : 00:03:40
Track gain : -1.85 dB
Peak : 0.927002
CRC32 hash (test run) : 7C86A710
CRC32 hash : 7C86A710
CRC32 hash (skip zero) : FBB514A4
AccurateRip v1 signature : A6E116D3
AccurateRip v2 signature : DFB31376
->Accurately ripped (v1+v2, confidence 1+1/3)
Statistics
Read error : 0
Jitter error (maybe fixed) : 0
Retry sector count : 0
Damaged sector count : 0
Track 08
Filename : /Users/XLD_rips/Ran Blake - Wende (2007) [FLAC]/01-08 Jim Crow.flac
Pre-gap length : 00:03:37
Track gain : -5.41 dB
Peak : 0.992767
CRC32 hash (test run) : 600872F5
CRC32 hash : 600872F5
CRC32 hash (skip zero) : 6B478334
AccurateRip v1 signature : 649F27C3
AccurateRip v2 signature : 75130F2E
->Accurately ripped (v1+v2, confidence 1+1/3)
Statistics
Read error : 0
Jitter error (maybe fixed) : 0
Retry sector count : 0
Damaged sector count : 0
Track 09
Filename : /Users/XLD_rips/Ran Blake - Wende (2007) [FLAC]/01-09 Airline.flac
Pre-gap length : 00:03:33
Track gain : -4.26 dB
Peak : 0.992401
CRC32 hash (test run) : 07BFA0E5
CRC32 hash : 07BFA0E5
CRC32 hash (skip zero) : AEAEF196
AccurateRip v1 signature : 5D5F570B
AccurateRip v2 signature : 390B7EDC
->Accurately ripped (v1+v2, confidence 1+1/3)
Statistics
Read error : 0
Jitter error (maybe fixed) : 0
Retry sector count : 0
Damaged sector count : 0
Track 10
Filename : /Users/XLD_rips/Ran Blake - Wende (2007) [FLAC]/01-10 Blues for Wheatleigh.flac
Pre-gap length : 00:03:40
Track gain : -2.44 dB
Peak : 0.948792
CRC32 hash (test run) : 8C78758E
CRC32 hash : 8C78758E
CRC32 hash (skip zero) : 8F57E15C
AccurateRip v1 signature : 3C8AA292
AccurateRip v2 signature : 88AFC40B
->Accurately ripped (v1+v2, confidence 1+1/3)
Statistics
Read error : 0
Jitter error (maybe fixed) : 0
Retry sector count : 0
Damaged sector count : 0
Track 11
Filename : /Users/XLD_rips/Ran Blake - Wende (2007) [FLAC]/01-11 Silver Fox.flac
Pre-gap length : 00:03:38
Track gain : -3.26 dB
Peak : 0.987000
CRC32 hash (test run) : 3D4E0517
CRC32 hash : 3D4E0517
CRC32 hash (skip zero) : 9191BCE2
AccurateRip v1 signature : CADAD33D
AccurateRip v2 signature : A3C7C750
->Accurately ripped (v1+v2, confidence 1+1/3)
Statistics
Read error : 0
Jitter error (maybe fixed) : 0
Retry sector count : 0
Damaged sector count : 0
Track 12
Filename : /Users/XLD_rips/Ran Blake - Wende (2007) [FLAC]/01-12 Jinxey's.flac
Pre-gap length : 00:03:47
Track gain : -2.98 dB
Peak : 0.972321
CRC32 hash (test run) : FDF9EF52
CRC32 hash : FDF9EF52
CRC32 hash (skip zero) : 8B5B0559
AccurateRip v1 signature : B7FCD53C
AccurateRip v2 signature : 3FE07AEA
->Accurately ripped (v1+v2, confidence 1+1/3)
Statistics
Read error : 0
Jitter error (maybe fixed) : 0
Retry sector count : 0
Damaged sector count : 0
Track 13
Filename : /Users/XLD_rips/Ran Blake - Wende (2007) [FLAC]/01-13 How Bout That - Take 3.flac
Pre-gap length : 00:03:50
Track gain : -6.31 dB
Peak : 0.992920
CRC32 hash (test run) : B7EEB105
CRC32 hash : B7EEB105
CRC32 hash (skip zero) : 4FBC0A9A
AccurateRip v1 signature : 59F4EA4A
AccurateRip v2 signature : 3C74C2B8
->Accurately ripped (v1+v2, confidence 1+1/3)
Statistics
Read error : 0
Jitter error (maybe fixed) : 0
Retry sector count : 0
Damaged sector count : 0
No errors occurred
End of status report
-----BEGIN XLD SIGNATURE-----
tPWdtgvxvm6LubMmBUGmJbkaLc5SzeTYYLPWzbbdQedjaeSHWy4KFOanni3g6YvMUFJbGUbce7H6XvEBHuf_lteTotlJ5vMoCa9dsMC
-----END XLD SIGNATURE-----
 
Содержание индексной карты (.CUE)
TITLE "Wende"
PERFORMER "Ran Blake"
REM GENRE "Jazz"
REM DATE "1976"
REM DISCID B508830D
REM REPLAYGAIN_ALBUM_GAIN -3.67 dB
REM REPLAYGAIN_ALBUM_PEAK 0.993774
FILE "01 - Field Cry.flac" WAVE
TRACK 01 AUDIO
TITLE "Field Cry"
ISRC FRZ027680220
REM REPLAYGAIN_TRACK_GAIN -2.23 dB
REM REPLAYGAIN_TRACK_PEAK 0.964081
INDEX 01 00:00:00
TRACK 02 AUDIO
TITLE "Wende"
ISRC FRZ027680230
REM REPLAYGAIN_TRACK_GAIN -2.74 dB
REM REPLAYGAIN_TRACK_PEAK 0.981750
INDEX 00 01:45:12
FILE "02 - Wende.flac" WAVE
INDEX 01 00:00:00
TRACK 03 AUDIO
TITLE "Thursday"
ISRC FRZ027680240
REM REPLAYGAIN_TRACK_GAIN -3.52 dB
REM REPLAYGAIN_TRACK_PEAK 0.985931
INDEX 00 03:48:65
FILE "03 - Thursday.flac" WAVE
INDEX 01 00:00:00
TRACK 04 AUDIO
TITLE "Aftermath"
ISRC FRZ027680250
REM REPLAYGAIN_TRACK_GAIN -5.38 dB
REM REPLAYGAIN_TRACK_PEAK 0.987122
INDEX 00 03:33:55
FILE "04 - Aftermath.flac" WAVE
INDEX 01 00:00:00
TRACK 05 AUDIO
TITLE "Three Personalities: Votichenko, Cadillac Joe, Amelia"
ISRC FRZ027680260
REM REPLAYGAIN_TRACK_GAIN -4.49 dB
REM REPLAYGAIN_TRACK_PEAK 0.993774
INDEX 00 01:01:43
FILE "05 - Three Personalities- Votichenko, Cadillac Joe, Amelia.flac" WAVE
INDEX 01 00:00:00
TRACK 06 AUDIO
TITLE "East Wind"
ISRC FRZ027680270
REM REPLAYGAIN_TRACK_GAIN 3.94 dB
REM REPLAYGAIN_TRACK_PEAK 0.770020
INDEX 00 02:19:22
FILE "06 - East Wind.flac" WAVE
INDEX 01 00:00:00
TRACK 07 AUDIO
TITLE "How 'Bout That (take 2)"
ISRC FRZ027680280
REM REPLAYGAIN_TRACK_GAIN -1.85 dB
REM REPLAYGAIN_TRACK_PEAK 0.927002
INDEX 00 02:10:57
FILE "07 - How 'Bout That (take 2).flac" WAVE
INDEX 01 00:00:00
TRACK 08 AUDIO
TITLE "Jim Crow"
ISRC FRZ027680290
REM REPLAYGAIN_TRACK_GAIN -5.41 dB
REM REPLAYGAIN_TRACK_PEAK 0.992767
INDEX 00 02:50:08
FILE "08 - Jim Crow.flac" WAVE
INDEX 01 00:00:00
TRACK 09 AUDIO
TITLE "Arline"
ISRC FRZ027680300
REM REPLAYGAIN_TRACK_GAIN -4.26 dB
REM REPLAYGAIN_TRACK_PEAK 0.992401
INDEX 00 03:05:55
FILE "09 - Arline.flac" WAVE
INDEX 01 00:00:00
TRACK 10 AUDIO
TITLE "Blues for Wheatleigh"
ISRC FRZ027680310
REM REPLAYGAIN_TRACK_GAIN -2.44 dB
REM REPLAYGAIN_TRACK_PEAK 0.948792
INDEX 00 03:20:55
FILE "10 - Blues for Wheatleigh.flac" WAVE
INDEX 01 00:00:00
TRACK 11 AUDIO
TITLE "Silver Fox"
ISRC FRZ027680320
REM REPLAYGAIN_TRACK_GAIN -3.26 dB
REM REPLAYGAIN_TRACK_PEAK 0.987000
INDEX 00 03:11:62
FILE "11 - Silver Fox.flac" WAVE
INDEX 01 00:00:00
TRACK 12 AUDIO
TITLE "Jinxey's"
ISRC FRZ027680330
REM REPLAYGAIN_TRACK_GAIN -2.98 dB
REM REPLAYGAIN_TRACK_PEAK 0.972321
INDEX 00 03:42:40
FILE "12 - Jinxey's.flac" WAVE
INDEX 01 00:00:00
TRACK 13 AUDIO
TITLE "How 'Bout That (take 3)"
ISRC FRZ027680340
REM REPLAYGAIN_TRACK_GAIN -6.31 dB
REM REPLAYGAIN_TRACK_PEAK 0.992920
INDEX 00 02:35:00
FILE "13 - How 'Bout That (take 3).flac" WAVE
INDEX 01 00:00:00
 
Отчет CUETools
[CUETools log; Date: 02.03.2015 16:19:20; Version: 2.1.5]
[CTDB TOCID: 6inc.wMwIVarGE_mpWdbVfzFRrA-] found.
Track | CTDB Status
1 | (1/1) Accurately ripped
2 | (1/1) Accurately ripped
3 | (1/1) Accurately ripped
4 | (1/1) Accurately ripped
5 | (1/1) Accurately ripped
6 | (1/1) Accurately ripped
7 | (1/1) Accurately ripped
8 | (1/1) Accurately ripped
9 | (1/1) Accurately ripped
10 | (1/1) Accurately ripped
11 | (1/1) Accurately ripped
12 | (1/1) Accurately ripped
13 | (1/1) Accurately ripped
[AccurateRip ID: 0011015e-00abad9f-b508830d] found.
Track [ CRC | V2 ] Status
01 [d67b14a6|709850d3] (1+1/3) Accurately ripped
02 [fe98492e|e775bfb2] (1+1/3) Accurately ripped
03 [4e73f7d0|2b21ceee] (1+1/3) Accurately ripped
04 [d8c65de0|8c2db455] (1+1/3) Accurately ripped
05 [1342271e|f6296d3c] (1+1/3) Accurately ripped
06 [64250d1e|6aa6f7d7] (1+1/3) Accurately ripped
07 [a6e116d3|dfb31376] (1+1/3) Accurately ripped
08 [649f27c3|75130f2e] (1+1/3) Accurately ripped
09 [5d5f570b|390b7edc] (1+1/3) Accurately ripped
10 [3c8aa292|88afc40b] (1+1/3) Accurately ripped
11 [cadad33d|a3c7c750] (1+1/3) Accurately ripped
12 [b7fcd53c|3fe07aea] (1+1/3) Accurately ripped
13 [59f4ea4a|3c74c2b8] (1+1/3) Accurately ripped
Track Peak [ CRC32 ] [W/O NULL]
-- 99,3 [7C163365] [12272C88]
01 96,4 [E9B862A7] [83905CCC]
02 98,1 [6EBC0D6E] [9F42336D]
03 98,5 [F258EB61] [717ACC5C]
04 98,7 [7188C817] [F0EACA6C]
05 99,3 [66D9F604] [830FEADF]
06 77,0 [23E9BAA5] [5CECD0AB]
07 92,7 [7C86A710] [FBB514A4]
08 99,2 [600872F5] [6B478334]
09 99,2 [07BFA0E5] [AEAEF196]
10 94,8 [8C78758E] [8F57E15C]
11 98,7 [3D4E0517] [9191BCE2]
12 97,2 [FDF9EF52] [8B5B0559]
13 99,2 [B7EEB105] [4FBC0A9A]
 
Review by Thom Jurek
Recorded in 1976 in Boston for France's Owl label and first released on compact disc in the early '90s, Wende is pianist Ran Blake solo at his most playful and adventurous. On "Field Cry," which opens the set, Blake is fooling with the blues and ragtime, subverting time and lyric changes without losing the feel. The title track is one of those spooky Blake ballads where the eerie and lyrical come together to whisper and sing. And so it goes -- there are songs here, and traces of them, as Blake picks them up from the night air and lays them out on his keys. His sparse phrasing comes from the heart of jazz and blues as articulated through the decades, with bits of the new added and bits of the old left in the night to sing their way in. It may not be clear, but as in his many fine solo albums, Blake is in complete control of both his hearing and his muse. These are very much song-oriented pieces, and Blake is a master of texture, space, and tension. His articulate mid-register playing uses time and melody while undoing both in the process and melding them back together as something entirely new -- check "Blues for Wheatleigh" or "Jim Crow." Wende is a beautifully tender album, full of memory, longing, sadness, and joy, by a pianist whose middle name should be "Ghost." Thanks to the Sunnyside label for bringing back the treasures of the Owl imprint.
По всем вопросам пишите личное сообщение пользователю M0p94ok.
09:53
226
Нет комментариев. Ваш будет первым!