Вы используете незарегистрированную версию компонента "Вкладки"!

Поиск

(Free Improvisation / Experimental) Noel Akchote, Roland Auzet, Luc Ferrari - Impro-Micro-Acoustique - 2003, FLAC (tracks+.cue), lossless

Треклист:
Noel Akchote, Roland Auzet, Luc Ferrari - Impro-Micro-Acoustique
Жанр: Free Improvisation / Experimental
Год выпуска диска: 2003
Производитель диска: США
Аудио кодек: FLAC
Тип рипа: tracks+.cue
Битрейт аудио: lossless
Продолжительность: 67:45
Трэклист:
01. Sur Le Contraste 15:46
02. Sur La Pulsation 10:58
03. Sur Le Continu 14:33
04. Sur Le Minimum 10:31
05. Sur Le Rythme 15:57
Музыканты:
Noël Akchoté - guitar, objects
Roland Auzet - percussion, objects
Luc Ferrari - piano, objects
 
Рецензия на альбом Impro-Micro-Acoustique от allmusic.com (на английском)
Luc Ferrari goes improv. In February of 2001, the composer and pioneer of French musique concrète invited guitarist Noël Akchoté and percussionist Roland Auzet into his studio/laboratory La Muse en Circuit to record his first free improvisation session ever. The man, whose music can be traced back as early as the 1950s, chose the piano as his main instrument, but all three musicians also had access to a wide array of small objects. Each also had a handheld microphone, amplifier, and loudspeakers, providing a number of different sonic perspectives. Impro-Micro Acoustique is Ferrari's mix-down of those perspectives. All three musicians are resourceful explorers of the little-heard sound. Akchoté sounds a bit more discreet than his usual self, careful to leave room for his colleagues, yet weaving his own contrapuntal voice into the music. A percussionist of contemporary classical training, Auzet adds a lot of drama and playfulness to the music. Ferrari spends most of his time inside the piano, plucking and bowing the strings, hitting the frame, and dropping objects. The track titles are programmatic: "Sur le Contraste" explores dynamic contrasts in a way that is too predictable and clunky. "Sur la Pulsation" and "Sur le Rythme" respectively focus on pulse and rhythm. The latter runs a bit long, but includes many savory moments, including a section featuring Auzet on glockenspiel and someone (Ferrari?) talking into a megaphone. It is a busy, highly entertaining piece. "Sur le Minimum" sticks to small gestures and silence, while the topic of "Sur le Continu" is the drone. A lush blend of cymbal and metal-sheet washes and bowed strings, it benefits from Ferrari's multi-perspective approach. Impro-Micro Acoustique is not improv-record-of-the-year material, but it is a very honest album and it makes you wonder what would have happened if, 40 years ago, Ferrari had started playing with improvisers instead of composing for them.
François Couture
 
Рецензия на альбом Impro-Micro-Acoustique от allmusic.com (сокращенный перевод)
Luc Ferrari берется за импровизацию. В феврале 2001, композитор и пионер французской musique concrète (конкретной музыки) пригласил гитариста Noël Akchoté и барабанщика Roland Auzet в свою студию/лабораторию La Muse en Circuit для записи первой в исории записи своей импровизации. Человек, музыка которого начинается еще в ранних 1950-ых, выбрал своим главным инструментом фортепиано, но всем трем музыкантам также был доступен целый ряд малых объектов. Каждый также имел ручной микрофон, усилитель и колонки, таким образом получая некоторое количество различных звуковых перспектив. Impro-Micro Acoustique это выполненное Ferrari смешивание этих перспектив...
... Impro-Micro Acoustique не является лушим импровизационным альбомом года, но это очень чесный альбом и он заставляет задуматься что бы произощло, если бы 40 лет назад Ferrari стал играть с импровизаторами вместо того, чтобы создавать для них композиции.
Франсуа Кутюр
 
EAC (XLD) log
X Lossless Decoder version 20090320 (105.1)
XLD extraction logfile from 2009-04-25 22:39:35 -0400
NoГ«l AkchotГ© / Roland Auzet / Luc Ferrari / Impro-Micro-Acoustique
Used drive : MATSHITA DVD-R UJ-857E (revision ZF1E)
Use cdparanoia mode : YES (CDParanoia III 10.2 engine)
Disable audio cache : OK for the drive with cache less than 2750KB
Make use of C2 pointers : NO
Read offset correction : 102
Max retry count : 100
TOC of the extracted CD
Track | Start | Length | Start sector | End sector
---------------------------------------------------------
1 | 00:00:00 | 15:46:15 | 0 | 70964
2 | 15:46:15 | 10:58:02 | 70965 | 120316
3 | 26:44:17 | 14:33:29 | 120317 | 185820
4 | 41:17:46 | 10:31:07 | 185821 | 233152
5 | 51:48:53 | 15:57:38 | 233153 | 304965
Track 01
Filename : /Volumes/LaCie/FLACS/01 - Sur Le Contraste.flac
/Volumes/LaCie/FLACS/01 - Sur Le Contraste.mp3
CRC32 hash (test run) : 3B5204DC
CRC32 hash : 3B5204DC
CRC32 hash (skip zero) : 2BB5D363
AccurateRip signature : D6F94BC4
->Track not present in AccurateRip database.
Statistics
Read error : 0
Skipped (treated as error) : 0
Edge jitter error (maybe fixed) : 0
Atom jitter error (maybe fixed) : 0
Drift error (maybe fixed) : 0
Dropped bytes error (maybe fixed) : 0
Duplicated bytes error (maybe fixed) : 0
Inconsistency in error sectors : 0
Track 02
Filename : /Volumes/LaCie/FLACS/02 - Sur La Pulsation.flac
/Volumes/LaCie/FLACS/02 - Sur La Pulsation.mp3
CRC32 hash (test run) : F555D3C9
CRC32 hash : F555D3C9
CRC32 hash (skip zero) : 069E115B
AccurateRip signature : 3F01D576
->Track not present in AccurateRip database.
Statistics
Read error : 0
Skipped (treated as error) : 0
Edge jitter error (maybe fixed) : 0
Atom jitter error (maybe fixed) : 0
Drift error (maybe fixed) : 0
Dropped bytes error (maybe fixed) : 0
Duplicated bytes error (maybe fixed) : 0
Inconsistency in error sectors : 0
Track 03
Filename : /Volumes/LaCie/FLACS/03 - Sur Le Continu.flac
/Volumes/LaCie/FLACS/03 - Sur Le Continu.mp3
CRC32 hash (test run) : C887EDD4
CRC32 hash : C887EDD4
CRC32 hash (skip zero) : 610E8E9A
AccurateRip signature : A78FF704
->Track not present in AccurateRip database.
Statistics
Read error : 0
Skipped (treated as error) : 0
Edge jitter error (maybe fixed) : 0
Atom jitter error (maybe fixed) : 0
Drift error (maybe fixed) : 0
Dropped bytes error (maybe fixed) : 0
Duplicated bytes error (maybe fixed) : 0
Inconsistency in error sectors : 0
Track 04
Filename : /Volumes/LaCie/FLACS/04 - Sur Le Minimum.flac
/Volumes/LaCie/FLACS/04 - Sur Le Minimum.mp3
CRC32 hash (test run) : E1D67FDF
CRC32 hash : E1D67FDF
CRC32 hash (skip zero) : B5F73043
AccurateRip signature : 674F7BCF
->Track not present in AccurateRip database.
Statistics
Read error : 0
Skipped (treated as error) : 0
Edge jitter error (maybe fixed) : 0
Atom jitter error (maybe fixed) : 0
Drift error (maybe fixed) : 0
Dropped bytes error (maybe fixed) : 0
Duplicated bytes error (maybe fixed) : 0
Inconsistency in error sectors : 0
Track 05
Filename : /Volumes/LaCie/FLACS/05 - Sur Le Rythme.flac
/Volumes/LaCie/FLACS/05 - Sur Le Rythme.mp3
CRC32 hash (test run) : 878B10AA
CRC32 hash : 878B10AA
CRC32 hash (skip zero) : 175AE325
AccurateRip signature : 7A23687F
->Track not present in AccurateRip database.
Statistics
Read error : 0
Skipped (treated as error) : 0
Edge jitter error (maybe fixed) : 0
Atom jitter error (maybe fixed) : 0
Drift error (maybe fixed) : 0
Dropped bytes error (maybe fixed) : 0
Duplicated bytes error (maybe fixed) : 0
Inconsistency in error sectors : 0
No errors occurred
End of status report
 
другая интересная музыка в lossless
(Avant-Garde Jazz) Ben Monder Trio - Oceana - 2005, FLAC (image+.cue), lossless
(Avant-Garde Jazz) Ben Monder - Excavation - 2000, FLAC (image+.cue), lossless
(Avant-Garde Jazz) Ben Monder Trio - Flux - 1995, FLAC (image+.cue), lossless
(Avant-Garde Jazz) Cecil Taylor Unit - The Eighth - 1981, FLAC (tracks+.cue), lossless
(Avant-Garde Jazz) Cecil Taylor - Algonquin - 2004, APE (tracks), losless
(Avant-Garde Jazz) Henry Threadgill Sextett - Rag, Bush and All - 1989, FLAC (image+.cue), lossless
(Avant-Garde Jazz) Henry Threadgill Very Very Circus - Carry The Day - 1995, FLAC (tracks), lossless
(Avant-Garde Jazz / Free Jazz) Joe McPhee - Nation Time - 1971, FLAC (tracks), lossless
(Free Improvisation / Experimental / Abstract) Keith Rowe & Sachiko M - Contact - 2009, FLAC (tracks+.cue), lossless
(Free Improvisation / Experimental) Keith Rowe & Toshimaru Nakamura - Erstlive 008 - 2009, FLAC (tracks+.cue), lossless
(Free Improvisation / Experimental) Keith Rowe & Toshimaru Nakamura - Weather Sky - 2001, FLAC (tracks), lossless
(Free Improvisation / Experimental / Abstract) Keith Rowe - Harsh, Guitar Solo - 2000, FLAC (tracks+.cue), lossless
(Avant-Garde Jazz) Pandelis Karayorgis, Mat Maneri - Disambiguation - 2002, FLAC (tracks+.cue)
(Post-Bop / Free Jazz) Steve Lacy - Soprano Sax - 1958, FLAC (tracks+.cue), lossless
(Post-Bop, Free Jazz) Steve Lacy - Reflections: Steve Lacy Plays Thelonious Monk - 1959, FLAC (tracks+.cue), lossless
(Post-Bop / Avant-Garde Jazz) Steve Lacy - The Straight Horn Of Steve Lacy - 1961, FLAC (tracks+.cue), lossless
(Bop / Progressive Jazz) Steve Lacy with Don Cherry - Evidence - 1962, APE (image+.cue), lossless
(Free Jazz / Post Bop) Steve Lacy - Disposability - 1966, APE (image+.cue), lossless
(Avant-Garde Jazz / Post-Bop) Steve Lacy - The Door - 1989, FLAC (tracks+.cue), lossless
(Avant-Garde Jazz / Post-Bop) Steve Lacy & Mal Waldron - Hot House - 1991, FLAC (tracks+.cue), lossless
(Avant-Garde Jazz) Vinny Golia, Joelle Leandre & Ken Filiano - Haunting the Spirits Inside Them - 1995, APE (image+.cue), lossless
(Avant-Garde / Free Improvisation) Alexander Nesterov, Yuriy Yaremchuk / Александр Нестеров, Юрий Яремчук - Prepared Piano and Soprano Saxophone - 1994, FLAC (tracks+.cue), lossless
(Avant-Garde Jazz / Free Improvisation) Yuriy Yaremchuk, Sergej Zelenskiy / Юрий Яремчук, Сергей Зеленский - Figures - 2002, FLAC (tracks+.cue), lossless
(Avant-Garde Jazz / Free Improvisation) Yuriy Yaremchuk, Mark Tokar / Юрий Яремчук, Марк Токар - Eight Compositions - 2005, FLAC (tracks+.cue), lossless
(Avant-Garde Jazz / Free Improvisation) Yuriy Yaremchuk / Юрий Яремчук - Seven Compositions - 2006, FLAC (tracks+.cue), lossless
(Avant-Garde Jazz / Free Improvisation) Vladislav Makarov, Yuriy Yaremchuk, Andrij Orel / Владислав Макаров, Юрий Яремчук, Андрий Орел - Gogolfest Projekt - 2008, FLAC (tracks+.cue), lossless
(Avant-Garde Jazz / Free Improvisation) Yuriy Yaremchuk / Юрий Яремчук - Six Compositions for Tenor Sax and Synthesizer Yamaha - 2008, FLAC (tracks+.cue), lossless
(Folk/Ukrainian) Ніна Матвієнко - Золотослов / Нина Матвиенко - Золотослов - 1997, APE (image+.cue)
Any questions -> support@pro-jazz.com. По всем вопросам пишите -> support@pro-jazz.com
18:00
163
Нет комментариев. Ваш будет первым!