Вы используете незарегистрированную версию компонента "Вкладки"!

Поиск

(Avant-garde jazz) John Wolf Brennan - The Well-Prepared Clavier - 1998, APE (image+.cue), lossless

(Avant-garde jazz) John Wolf Brennan - The Well-Prepared Clavier - 1998, APE (image+.cue), lossless
Треклист:
John Wolf Brennan - The Well-Prepared Clavier
Жанр: Avant-garde jazz
Год выпуска диска: 1998
Производитель диска: Switzerland
Аудио кодек: APE
Тип рипа: image+.cue
Битрейт аудио: lossless
Продолжительность: 74:33
Log:
 
скрытый текст
Exact Audio Copy V0.99 prebeta 4 from 23. January 2008
Отчёт EAC об извлечении, выполненном 9. января 2010, 7:12
John Wolf Brennan / The Well-Prepared Clavier
Дисковод: Optiarc DVD RW AD-7200S Adapter: 4 ID: 0
Режим чтения : Достоверность
Использование точного потока : Да
Отключение кэша аудио : Да
Использование указателей C2 : Нет
Коррекция смещения при чтении : 48
Способность читать области Lead-in и Lead-out : Нет
Заполнение пропущенных сэмплов тишиной : Да
Удаление блоков с тишиной в начале и конце : Нет
При вычислениях CRC использовались нулевые сэмплы : Да
Интерфейс : Встроенный Win32-интерфейс для Win NT/2000
Выходной формат : Внутренние WAV-операции
Формат сэмплов : 44.100 Гц; 16 бит; стерео
TOC извлечённого CD
Трек | Старт | Длительность | Начальный сектор | Конечный сектор
---------------------------------------------------------------------
1 | 0:00.00 | 3:08.71 | 0 | 14170
2 | 3:08.71 | 2:20.06 | 14171 | 24676
3 | 5:29.02 | 0:48.67 | 24677 | 28343
4 | 6:17.69 | 2:08.74 | 28344 | 38017
5 | 8:26.68 | 2:46.62 | 38018 | 50529
6 | 11:13.55 | 1:12.37 | 50530 | 55966
7 | 12:26.17 | 10:32.45 | 55967 | 103411
8 | 22:58.62 | 1:50.08 | 103412 | 111669
9 | 24:48.70 | 0:31.17 | 111670 | 114011
10 | 25:20.12 | 2:36.10 | 114012 | 125721
11 | 27:56.22 | 4:01.58 | 125722 | 143854
12 | 31:58.05 | 1:20.74 | 143855 | 149928
13 | 33:19.04 | 2:00.58 | 149929 | 158986
14 | 35:19.62 | 2:03.23 | 158987 | 168234
15 | 37:23.10 | 5:09.18 | 168235 | 191427
16 | 42:32.28 | 1:44.18 | 191428 | 199245
17 | 44:16.46 | 3:13.34 | 199246 | 213754
18 | 47:30.05 | 3:00.50 | 213755 | 227304
19 | 50:30.55 | 4:32.59 | 227305 | 247763
20 | 55:03.39 | 2:48.38 | 247764 | 260401
21 | 57:52.02 | 4:49.67 | 260402 | 282143
22 | 62:41.69 | 3:33.37 | 282144 | 298155
23 | 66:15.31 | 1:47.44 | 298156 | 306224
24 | 68:03.00 | 6:14.39 | 306225 | 334313
Характеристики диапазона извлечения и сообщения об ошибках
Выбранный диапазон
Имя файла D:\Music internet\Раздачи\John Wolf Brennan\The Well-Prepared Clavier\John Wolf Brennan - The Well-Prepared Clavier.wav
Пиковый уровень 91.6 %
Качество диапазона 100.0 %
CRC копии B2E24B26
Копирование... OK
Ошибок не произошло
AccurateRip: сводка
Трек 1 нет в базе данных
Трек 2 нет в базе данных
Трек 3 нет в базе данных
Трек 4 нет в базе данных
Трек 5 нет в базе данных
Трек 6 нет в базе данных
Трек 7 нет в базе данных
Трек 8 нет в базе данных
Трек 9 нет в базе данных
Трек 10 нет в базе данных
Трек 11 нет в базе данных
Трек 12 нет в базе данных
Трек 13 нет в базе данных
Трек 14 нет в базе данных
Трек 15 нет в базе данных
Трек 16 нет в базе данных
Трек 17 нет в базе данных
Трек 18 нет в базе данных
Трек 19 нет в базе данных
Трек 20 нет в базе данных
Трек 21 нет в базе данных
Трек 22 нет в базе данных
Трек 23 нет в базе данных
Трек 24 нет в базе данных
Ни одного трека нет в базе AccurateRip
Конец отчёта
Трэклист:
1. Prelude (3:08)
2. Assonance (2:20)
3. Russian Doors #1 (0:48)
4. Resonance (2:08)
5. To Gyoergi K. (2:46)
6. Russian Doors #2 (1:12)
7. Seven Studies For Prepared Piano, Agitato, Con Fuoco, Sotto Voce, Veloce, Misterioso, Scivolando, Risoluto (10:32)
8. To Henry C. (1:50)
9. Russian Doors #3 (0:31)
10. Mile End (2:36)
11. Bow Road (4:01)
12. Russian Doors #4 (1:20)
13. Rump-L-Rumba (2:00)
14. Smithy Street, Stepney (2:03)
15. Aldgate East (Mind The Gap Under Ground) (5:09)
16. Russian Doors #5 (1:44)
17. Postlude (3:13)
18. R2d2 - Piano Duett With Marianne Schroeder (3:00)
19. Science Friction II (4:32)
20. All The Strings You Are (2:48)
21. To John C. (4:49)
22. C3po - Variations On Sergej Kuryokhin's "The Situation Of The Asian Proletariat In America" (3:33)
23. The Last Waltz (1:47)
24. Be Flat (6:14)
Доп. информация: John Wolf Brennan - швейцарский пианист, участник квартета Pago Libre.
Any questions -> support@pro-jazz.com. По всем вопросам пишите -> support@pro-jazz.com
17:59
164
Нет комментариев. Ваш будет первым!