Вы используете незарегистрированную версию компонента "Вкладки"!

Поиск

(Avant-garde jazz) John Wolf Brennan - Hextet - 1998, APE (image+.cue), lossless

(Avant-garde jazz) John Wolf Brennan - Hextet - 1998, APE (image+.cue), lossless
Треклист:
John Wolf Brennan - Hextet
Жанр: Avant-garde jazz
Год выпуска диска: 1998
Производитель диска: England
Аудио кодек: APE
Тип рипа: image+.cue
Битрейт аудио: lossless
Log:
 
скрытый текст
Exact Audio Copy V0.99 prebeta 4 from 23. January 2008
Отчёт EAC об извлечении, выполненном 9. января 2010, 6:53
Hextet / John Wolf Brennan
Дисковод: Optiarc DVD RW AD-7200S Adapter: 4 ID: 0
Режим чтения : Достоверность
Использование точного потока : Да
Отключение кэша аудио : Да
Использование указателей C2 : Нет
Коррекция смещения при чтении : 48
Способность читать области Lead-in и Lead-out : Нет
Заполнение пропущенных сэмплов тишиной : Да
Удаление блоков с тишиной в начале и конце : Нет
При вычислениях CRC использовались нулевые сэмплы : Да
Интерфейс : Встроенный Win32-интерфейс для Win NT/2000
Выходной формат : Внутренние WAV-операции
Формат сэмплов : 44.100 Гц; 16 бит; стерео
TOC извлечённого CD
Трек | Старт | Длительность | Начальный сектор | Конечный сектор
---------------------------------------------------------------------
1 | 0:00.00 | 2:39.40 | 0 | 11964
2 | 2:39.40 | 3:50.63 | 11965 | 29277
3 | 6:30.28 | 3:26.12 | 29278 | 44739
4 | 9:56.40 | 2:56.00 | 44740 | 57939
5 | 12:52.40 | 3:38.63 | 57940 | 74352
6 | 16:31.28 | 8:05.32 | 74353 | 110759
7 | 24:36.60 | 4:20.73 | 110760 | 130332
8 | 28:57.58 | 3:45.32 | 130333 | 147239
9 | 32:43.15 | 4:31.50 | 147240 | 167614
10 | 37:14.65 | 4:42.70 | 167615 | 188834
11 | 41:57.60 | 2:42.35 | 188835 | 201019
12 | 44:40.20 | 1:43.60 | 201020 | 208804
13 | 46:24.05 | 3:31.67 | 208805 | 224696
Характеристики диапазона извлечения и сообщения об ошибках
Выбранный диапазон
Имя файла D:\Music internet\Раздачи\John Wolf Brennan\Hextet - John Wolf Brennan\Hextet - John Wolf Brennan.wav
Пиковый уровень 98.8 %
Качество диапазона 99.9 %
CRC копии D303F0FE
Копирование... OK
Ошибок не произошло
AccurateRip: сводка
Трек 1 нет в базе данных
Трек 2 нет в базе данных
Трек 3 нет в базе данных
Трек 4 нет в базе данных
Трек 5 нет в базе данных
Трек 6 нет в базе данных
Трек 7 нет в базе данных
Трек 8 нет в базе данных
Трек 9 нет в базе данных
Трек 10 нет в базе данных
Трек 11 нет в базе данных
Трек 12 нет в базе данных
Трек 13 нет в базе данных
Ни одного трека нет в базе AccurateRip
Конец отчёта
Трэклист:
1. No Go Area (2:39)
2. No Go Echo (3:50)
3. The Valley Of Unrest (3:26)
4. A Valley Echo (2:56)
5. M. (3:38)
6. Go Slow (8:05)
7. The Woman Was An Eagle (4:20)
8. Eagle Echo (3:45)
9. Where Art Is A Midwife (4:31)
10. Where Art Is An Echo (4:42)
11. The Rain Stick (2:42)
12. Rain Stick Echo (1:43)
13. Two Loves (3:31)
Доп. информация: John Wolf Brennan - швейцарский пианист, участник квартета Pago Libre.
Any questions -> support@pro-jazz.com. По всем вопросам пишите -> support@pro-jazz.com
17:59
180
Нет комментариев. Ваш будет первым!