Вы используете незарегистрированную версию компонента "Вкладки"!

Поиск

(Free / Contemporary Jazz) Nobuyasu Furuya Trio - Bendowa - 2009, FLAC (image+.cue), lossless

(Free / Contemporary Jazz) Nobuyasu Furuya Trio - Bendowa - 2009, FLAC (image+.cue), lossless
Треклист:
Nobuyasu Furuya Trio - Bendowa
Жанр: Free / Contemporary Jazz
Год выпуска диска: 2009
Производитель диска: Portugal (Clean Feed CF159)
Аудио кодек: FLAC
Тип рипа: image+.cue
Битрейт аудио: lossless
Продолжительность: 45:39
Nobuyasu Furuya: tenor saxophone, bass clarinet, flute
Hernâni Faustino: double bass
Gabriel Ferrandini: drums, percussion
1. Track 1
2. Track 2
3. Track 3
4. Track 4
5. Track 5

 
Clean Feed Release Notes
Born in Japan, but living and playing in Lisbon, Nobuyasu Furuya is agitating the waters of the jazz and improvised music scene in Portugal either with his smashing blow, remembering the washes of sound by Archie Shepp and Peter Brotzmann, or with an implacable energy control and rigor, the same we find in the Japanese tea ceremonies, bonsai trees and stone gardens. In his youth a cook apprentice in a Zen Buddhist temple, Furuya began to play baroque European music, but soon free jazz focused his interest. A composer for dance, theater and cinema, he also played in noise and ska-core bands. For some time, this multi-instrumentalist (tenor saxophone, bass clarinet and flute) studied the Ottoman classical music from Turkey, and this experience influenced his future options. In Furuya's Portuguese trio, we find double bassist Hernâni Faustino and drummer Gabriel Ferrandini, both of them musicians who play with guts and brain, a not very common combination. The music in “Bendowa” – the title of a 13th century book written by Dogen, the monk who founded Soto Zen – has everything to surprise you. “I play because I have something to say: it can be silence and murmur, or it can be a shout” – says Nobuyasu Furuya. ~ Clean Feed Release Notes
 
Freejazz Stef Review
There are albums that are gripping from the first moment that you listen to them, others have to ripen through repeated listens. "Bendowa", a title that refers to the book by the Japanese zen master Dogen, belongs to the first category. From the very first notes, the trio's approach is clear: lyrical, sensitive, free and creative improvisation. The lead voice is by Nobuyasu Furuya on tenor saxophone, bass clarinet and flute, with Hernani Faustino on double bass, and Gabriel Ferrandini on drums and percussion. The trio is based in Portugal and totally unknown to me. But I'm glad that's no longer the case. Furuya's tone is buttery and warm, even in the fiercest parts of the improvisations, and the Portuguese rhythm section is a perfect complement for the Japanese: their sense of "controlled passion" is just as great, as is their use of silence. In this silence, and in the calm elaboration and patient sense of pace, his apprenticeship as a cook in a zen monastery shows through, yet don't get me wrong, this is not music for meditation: it's as passionate and expressive as you could hope for, full of intensity. This is not the music of an enlightened soul. This is music of an authentic soul, a seeking soul, full of contradictions and tension. This is music of full of soul, full stop. Highly recommended. ~ freejazz-stef.blogspot.com
 
EAC Report
Exact Audio Copy V0.99 prebeta 5 from 4. May 2009
EAC extraction logfile from 6. January 2010, 21:51
Nobuyasu Furuya Trio / Bendowa
Used drive : hp DVD-RAM GH40L Adapter: 0 ID: 1
Read mode : Secure
Utilize accurate stream : Yes
Defeat audio cache : Yes
Make use of C2 pointers : No
Read offset correction : 667
Overread into Lead-In and Lead-Out : No
Fill up missing offset samples with silence : Yes
Delete leading and trailing silent blocks : No
Null samples used in CRC calculations : Yes
Used interface : Installed external ASPI interface
Used output format : User Defined Encoder
Selected bitrate : 1024 kBit/s
Quality : High
Add ID3 tag : No
Command line compressor : C:\Program Files\Exact Audio Copy\Flac\flac.exe
Additional command line options : -6 -V -T "ARTIST=%a" -T "TITLE=%t" -T "ALBUM=%g" -T "DATE=%y" -T "TRACKNUMBER=%n" -T "GENRE=%m" -T "COMMENT=EAC FLAC -6" %s
TOC of the extracted CD
Track | Start | Length | Start sector | End sector
---------------------------------------------------------
1 | 0:00.00 | 9:04.32 | 0 | 40831
2 | 9:04.32 | 9:16.04 | 40832 | 82535
3 | 18:20.36 | 10:24.59 | 82536 | 129394
4 | 28:45.20 | 9:28.55 | 129395 | 172049
5 | 38:14.00 | 7:25.08 | 172050 | 205432
Range status and errors
Selected range
Filename C:\Users\Igor\Music\eac\Nobuyasu Furuya Trio - Bendowa.wav
Peak level 100.0 %
Range quality 100.0 %
Test CRC 1C8A5378
Copy CRC 1C8A5378
Copy OK
No errors occurred
AccurateRip summary
Track 1 not present in database
Track 2 not present in database
Track 3 not present in database
Track 4 not present in database
Track 5 not present in database
None of the tracks are present in the AccurateRip database
End of status report
Any questions -> support@pro-jazz.com. По всем вопросам пишите -> support@pro-jazz.com
18:01
132
Нет комментариев. Ваш будет первым!