Вы используете незарегистрированную версию компонента "Вкладки"!

Поиск

(Free Improvisation, Experimental, Folk, Avant-Garde) Paolo Angeli - Bucato - 2003, FLAC (tracks+.cue) lossless

(Free Improvisation, Experimental, Folk, Avant-Garde) Paolo Angeli - Bucato - 2003, FLAC (tracks+.cue) lossless
Треклист:
Paolo Angeli / Bucato
Жанр: Free Improvisation, Experimental, Folk, Avant-Garde
Страна-производитель диска: UK
Год издания диска: 2003
Издатель (лейбл): ReR Megacorp
Номер по каталогу: PA1
Аудио кодек: FLAC (*.flac)
Тип рипа: tracks+.cue
Битрейт аудио: lossless
Продолжительность: 65:49
Источник (релизер): what.cd (closer71)
Наличие сканов в содержимом раздачи: да
Треклист:
01 Lulas 4:45
02 Mesh Plug 2:48
03 Azulejos 1:48
04 A Righe 4:14
05 Etterbeek (Intro) 3:54
06 Etterbeek 5:04
07 Gocce 1:31
08 Tavole A Vela 5:04
09 Si Riprende 3:19
10 E Vai! 3:14
11 Fuori Dal Bacello (Intro) 2:21
12 Fuori Dal Bacello 5:13
13 Transiti 2:52
14 Bagagli Smarriti 0:42
15 Discussione Inutile 1:53
16 Partenze 2:20
17 Linee Di Fuga 6:07
18 Via Libera 5:37
19 Passe Partout 2:10
20 Prexau 2:23
 
Лог создания рипа
Exact Audio Copy V0.99 prebeta 4 from 23. January 2008
EAC extraction logfile from 17. May 2010, 13:46
Paolo Angeli / Bucato
Used drive : PHILIPS DVDR1648P1 Adapter: 1 ID: 0
Read mode : Secure
Utilize accurate stream : Yes
Defeat audio cache : Yes
Make use of C2 pointers : No
Read offset correction : 618
Overread into Lead-In and Lead-Out : No
Fill up missing offset samples with silence : Yes
Delete leading and trailing silent blocks : No
Null samples used in CRC calculations : Yes
Used interface : Installed external ASPI interface
Gap handling : Appended to previous track
Used output format : User Defined Encoder
Selected bitrate : 1024 kBit/s
Quality : High
Add ID3 tag : No
Command line compressor : C:\Programmi\Exact Audio Copy\Flac\flac.exe
Additional command line options : -8 -V -T "artist=%a" -T "title=%t" -T "album=%g" -T "date=%y" -T "tracknumber=%n" -T "genre=%m" %s
TOC of the extracted CD
Track | Start | Length | Start sector | End sector
---------------------------------------------------------
1 | 0:00.01 | 4:45.61 | 1 | 21436
2 | 4:45.62 | 2:48.43 | 21437 | 34079
3 | 7:34.30 | 1:48.69 | 34080 | 42248
4 | 9:23.24 | 4:14.09 | 42249 | 61307
5 | 13:37.33 | 3:54.13 | 61308 | 78870
6 | 17:31.46 | 5:04.55 | 78871 | 101725
7 | 22:36.26 | 1:31.47 | 101726 | 108597
8 | 24:07.73 | 5:04.55 | 108598 | 131452
9 | 29:12.53 | 1:39.36 | 131453 | 138913
10 | 30:52.14 | 3:14.05 | 138914 | 153468
11 | 34:06.19 | 2:21.04 | 153469 | 164047
12 | 36:27.23 | 5:13.32 | 164048 | 187554
13 | 41:40.55 | 2:52.18 | 187555 | 200472
14 | 44:32.73 | 0:42.25 | 200473 | 203647
15 | 45:15.23 | 1:53.63 | 203648 | 212185
16 | 47:09.11 | 2:20.47 | 212186 | 222732
17 | 49:29.58 | 6:07.71 | 222733 | 250328
18 | 55:37.54 | 5:37.08 | 250329 | 275611
19 | 61:14.62 | 2:10.14 | 275612 | 285375
20 | 63:25.01 | 2:23.74 | 285376 | 296174
Track 1
Filename G:\Ripworks\Avantgarde\Paolo Angeli\Bucato\01-Lulas.wav
Pre-gap length 0:00:02.01
Peak level 98.8 %
Track quality 100.0 %
Test CRC 1EAF75E4
Copy CRC 1EAF75E4
Cannot be verified as accurate (confidence 1) [4A9B9670], AccurateRip returned [8ADAF94F]
Copy OK
Track 2
Filename G:\Ripworks\Avantgarde\Paolo Angeli\Bucato\02-Mesh Plug.wav
Pre-gap length 0:00:02.45
Peak level 98.8 %
Track quality 100.0 %
Test CRC 609CEBD7
Copy CRC 609CEBD7
Cannot be verified as accurate (confidence 1) [8E8B16F9], AccurateRip returned [44336F88]
Copy OK
Track 3
Filename G:\Ripworks\Avantgarde\Paolo Angeli\Bucato\03-Azulejos.wav
Pre-gap length 0:00:02.09
Peak level 73.4 %
Track quality 99.9 %
Test CRC 71EE241B
Copy CRC 71EE241B
Cannot be verified as accurate (confidence 1) [2C131FD9], AccurateRip returned [966D8556]
Copy OK
Track 4
Filename G:\Ripworks\Avantgarde\Paolo Angeli\Bucato\04-Righe, A.wav
Pre-gap length 0:00:03.27
Peak level 98.8 %
Track quality 100.0 %
Test CRC 3942CA65
Copy CRC 3942CA65
Cannot be verified as accurate (confidence 1) [F9A7CDE3], AccurateRip returned [5E0AE2DA]
Copy OK
Track 5
Filename G:\Ripworks\Avantgarde\Paolo Angeli\Bucato\05-Etterbeek (Intro).wav
Pre-gap length 0:00:02.08
Peak level 67.1 %
Track quality 100.0 %
Test CRC 670C7ED9
Copy CRC 670C7ED9
Cannot be verified as accurate (confidence 1) [454DB5DA], AccurateRip returned [FCFF822E]
Copy OK
Track 6
Filename G:\Ripworks\Avantgarde\Paolo Angeli\Bucato\06-Etterbeek.wav
Pre-gap length 0:00:03.49
Peak level 98.8 %
Track quality 100.0 %
Test CRC 9D9E4F10
Copy CRC 9D9E4F10
Cannot be verified as accurate (confidence 1) [24AD76E6], AccurateRip returned [236E2085]
Copy OK
Track 7
Filename G:\Ripworks\Avantgarde\Paolo Angeli\Bucato\07-Gocce.wav
Pre-gap length 0:00:02.67
Peak level 30.2 %
Track quality 99.8 %
Test CRC 20B0EBEA
Copy CRC 20B0EBEA
Cannot be verified as accurate (confidence 1) [83E3BD5B], AccurateRip returned [12089CA9]
Copy OK
Track 8
Filename G:\Ripworks\Avantgarde\Paolo Angeli\Bucato\08-Tavole A Vela.wav
Pre-gap length 0:00:02.41
Peak level 98.8 %
Track quality 100.0 %
Test CRC 78B88B97
Copy CRC 78B88B97
Cannot be verified as accurate (confidence 1) [D044EB5B], AccurateRip returned [AB29F3AA]
Copy OK
Track 9
Filename G:\Ripworks\Avantgarde\Paolo Angeli\Bucato\09-Si Riprende.wav
Pre-gap length 0:00:02.67
Peak level 98.8 %
Track quality 100.0 %
Test CRC 48DDB63A
Copy CRC 48DDB63A
Cannot be verified as accurate (confidence 1) [505E1B4A], AccurateRip returned [4BF99746]
Copy OK
Track 10
Filename G:\Ripworks\Avantgarde\Paolo Angeli\Bucato\10-E Vai!.wav
Pre-gap length 0:00:02.69
Peak level 98.8 %
Track quality 100.0 %
Test CRC 0ACBCFEA
Copy CRC 0ACBCFEA
Cannot be verified as accurate (confidence 1) [CB0F02A4], AccurateRip returned [C8AC11C5]
Copy OK
Track 11
Filename G:\Ripworks\Avantgarde\Paolo Angeli\Bucato\11-Fuori Dal Bacello (Intro).wav
Pre-gap length 0:00:02.53
Peak level 98.8 %
Track quality 100.0 %
Test CRC C8FCF439
Copy CRC C8FCF439
Cannot be verified as accurate (confidence 1) [27AEA489], AccurateRip returned [51CA0E9D]
Copy OK
Track 12
Filename G:\Ripworks\Avantgarde\Paolo Angeli\Bucato\12-Fuori Dal Bacello.wav
Pre-gap length 0:00:02.45
Peak level 98.8 %
Track quality 100.0 %
Test CRC 38495BD2
Copy CRC 38495BD2
Cannot be verified as accurate (confidence 1) [C3A16E6B], AccurateRip returned [16170FC4]
Copy OK
Track 13
Filename G:\Ripworks\Avantgarde\Paolo Angeli\Bucato\13-Transiti.wav
Pre-gap length 0:00:03.02
Peak level 37.9 %
Track quality 100.0 %
Test CRC E698A9E6
Copy CRC E698A9E6
Cannot be verified as accurate (confidence 1) [0044C26A], AccurateRip returned [B10ABDF7]
Copy OK
Track 14
Filename G:\Ripworks\Avantgarde\Paolo Angeli\Bucato\14-Bagagli Smarriti.wav
Pre-gap length 0:00:02.15
Peak level 56.5 %
Track quality 100.0 %
Test CRC 547F299E
Copy CRC 547F299E
Cannot be verified as accurate (confidence 1) [1817860A], AccurateRip returned [419EAA63]
Copy OK
Track 15
Filename G:\Ripworks\Avantgarde\Paolo Angeli\Bucato\15-Discussione Inutile.wav
Pre-gap length 0:00:02.31
Peak level 98.8 %
Track quality 100.0 %
Test CRC 609C8B0E
Copy CRC 609C8B0E
Cannot be verified as accurate (confidence 1) [FCDE9FA8], AccurateRip returned [AB201E75]
Copy OK
Track 16
Filename G:\Ripworks\Avantgarde\Paolo Angeli\Bucato\16-Partenze.wav
Pre-gap length 0:00:03.44
Peak level 60.5 %
Track quality 100.0 %
Test CRC D61CA155
Copy CRC D61CA155
Cannot be verified as accurate (confidence 1) [2F066547], AccurateRip returned [D1D2E896]
Copy OK
Track 17
Filename G:\Ripworks\Avantgarde\Paolo Angeli\Bucato\17-Linee Di Fuga.wav
Pre-gap length 0:00:02.44
Peak level 98.8 %
Track quality 99.9 %
Test CRC 77A0AADD
Copy CRC 77A0AADD
Cannot be verified as accurate (confidence 1) [322173E3], AccurateRip returned [E8FFA92B]
Copy OK
Track 18
Filename G:\Ripworks\Avantgarde\Paolo Angeli\Bucato\18-Via Libera.wav
Pre-gap length 0:00:02.32
Peak level 98.8 %
Track quality 100.0 %
Test CRC DE58B4F7
Copy CRC DE58B4F7
Cannot be verified as accurate (confidence 1) [280B737B], AccurateRip returned [D217CF4E]
Copy OK
Track 19
Filename G:\Ripworks\Avantgarde\Paolo Angeli\Bucato\19-Passe Partout.wav
Pre-gap length 0:00:02.05
Peak level 65.8 %
Track quality 99.9 %
Test CRC E262AEEF
Copy CRC E262AEEF
Cannot be verified as accurate (confidence 1) [A69CC1EF], AccurateRip returned [B466439E]
Copy OK
Track 20
Filename G:\Ripworks\Avantgarde\Paolo Angeli\Bucato\20-Prexau.wav
Pre-gap length 0:00:02.20
Peak level 98.8 %
Track quality 100.0 %
Test CRC 70ACC997
Copy CRC 70ACC997
Cannot be verified as accurate (confidence 1) [2675B25B], AccurateRip returned [B8ADD5A4]
Copy OK
No tracks could be verified as accurate
You may have a different pressing from the one(s) in the database
No errors occurred
End of status report
 
Содержание индексной карты (.CUE)
REM GENRE Avantgarde
REM DATE 2003
REM DISCID 3E0F6D14
REM COMMENT "ExactAudioCopy v0.99pb4"
PERFORMER "Paolo Angeli"
TITLE "Bucato"
FILE "01-Lulas.wav" WAVE
TRACK 01 AUDIO
TITLE "Lulas"
PERFORMER "Paolo Angeli"
FLAGS DCP
PREGAP 00:00:01
INDEX 01 00:00:00
TRACK 02 AUDIO
TITLE "Mesh Plug"
PERFORMER "Paolo Angeli"
FLAGS DCP
INDEX 00 04:43:16
FILE "02-Mesh Plug.wav" WAVE
INDEX 01 00:00:00
TRACK 03 AUDIO
TITLE "Azulejos"
PERFORMER "Paolo Angeli"
FLAGS DCP
INDEX 00 02:46:34
FILE "03-Azulejos.wav" WAVE
INDEX 01 00:00:00
TRACK 04 AUDIO
TITLE "Righe, A"
PERFORMER "Paolo Angeli"
FLAGS DCP
INDEX 00 01:45:42
FILE "04-Righe, A.wav" WAVE
INDEX 01 00:00:00
TRACK 05 AUDIO
TITLE "Etterbeek (Intro)"
PERFORMER "Paolo Angeli"
FLAGS DCP
INDEX 00 04:12:01
FILE "05-Etterbeek (Intro).wav" WAVE
INDEX 01 00:00:00
TRACK 06 AUDIO
TITLE "Etterbeek"
PERFORMER "Paolo Angeli"
FLAGS DCP
INDEX 00 03:50:39
FILE "06-Etterbeek.wav" WAVE
INDEX 01 00:00:00
TRACK 07 AUDIO
TITLE "Gocce"
PERFORMER "Paolo Angeli"
FLAGS DCP
INDEX 00 05:01:63
FILE "07-Gocce.wav" WAVE
INDEX 01 00:00:00
TRACK 08 AUDIO
TITLE "Tavole A Vela"
PERFORMER "Paolo Angeli"
FLAGS DCP
INDEX 00 01:29:06
FILE "08-Tavole A Vela.wav" WAVE
INDEX 01 00:00:00
TRACK 09 AUDIO
TITLE "Si Riprende"
PERFORMER "Paolo Angeli"
FLAGS DCP
INDEX 00 05:01:63
FILE "09-Si Riprende.wav" WAVE
INDEX 01 00:00:00
TRACK 10 AUDIO
TITLE "E Vai!"
PERFORMER "Paolo Angeli"
FLAGS DCP
INDEX 00 01:36:42
FILE "10-E Vai!.wav" WAVE
INDEX 01 00:00:00
TRACK 11 AUDIO
TITLE "Fuori Dal Bacello (Intro)"
PERFORMER "Paolo Angeli"
FLAGS DCP
INDEX 00 03:11:27
FILE "11-Fuori Dal Bacello (Intro).wav" WAVE
INDEX 01 00:00:00
TRACK 12 AUDIO
TITLE "Fuori Dal Bacello"
PERFORMER "Paolo Angeli"
FLAGS DCP
INDEX 00 02:18:34
FILE "12-Fuori Dal Bacello.wav" WAVE
INDEX 01 00:00:00
TRACK 13 AUDIO
TITLE "Transiti"
PERFORMER "Paolo Angeli"
FLAGS DCP
INDEX 00 05:10:30
FILE "13-Transiti.wav" WAVE
INDEX 01 00:00:00
TRACK 14 AUDIO
TITLE "Bagagli Smarriti"
PERFORMER "Paolo Angeli"
FLAGS DCP
INDEX 00 02:50:03
FILE "14-Bagagli Smarriti.wav" WAVE
INDEX 01 00:00:00
TRACK 15 AUDIO
TITLE "Discussione Inutile"
PERFORMER "Paolo Angeli"
FLAGS DCP
INDEX 00 00:39:69
FILE "15-Discussione Inutile.wav" WAVE
INDEX 01 00:00:00
TRACK 16 AUDIO
TITLE "Partenze"
PERFORMER "Paolo Angeli"
FLAGS DCP
INDEX 00 01:50:19
FILE "16-Partenze.wav" WAVE
INDEX 01 00:00:00
TRACK 17 AUDIO
TITLE "Linee Di Fuga"
PERFORMER "Paolo Angeli"
FLAGS DCP
INDEX 00 02:18:03
FILE "17-Linee Di Fuga.wav" WAVE
INDEX 01 00:00:00
TRACK 18 AUDIO
TITLE "Via Libera"
PERFORMER "Paolo Angeli"
FLAGS DCP
INDEX 00 06:05:39
FILE "18-Via Libera.wav" WAVE
INDEX 01 00:00:00
TRACK 19 AUDIO
TITLE "Passe Partout"
PERFORMER "Paolo Angeli"
FLAGS DCP
INDEX 00 05:35:03
FILE "19-Passe Partout.wav" WAVE
INDEX 01 00:00:00
TRACK 20 AUDIO
TITLE "Prexau"
PERFORMER "Paolo Angeli"
FLAGS DCP
INDEX 00 02:07:69
FILE "20-Prexau.wav" WAVE
INDEX 01 00:00:00
 
Состав
Guitar [Sardinian Prepared] – Paolo Angeli
По всем вопросам пишите личное сообщение пользователю M0p94ok.
11:42
164
Нет комментариев. Ваш будет первым!