Вы используете незарегистрированную версию компонента "Вкладки"!

Поиск

(Contemporary Classical, Free Improvisation) Radu Malfatti, Keith Rowe - Ф - 2011, FLAC (tracks+.cue) lossless

(Contemporary Classical, Free Improvisation) Radu Malfatti, Keith Rowe - Ф - 2011, FLAC (tracks+.cue) lossless
Треклист:
Radu Malfatti, Keith Rowe / Ф
Жанр: Contemporary Classical, Free Improvisation
Страна-производитель диска: США
Год издания диска: 2011
Издатель (лейбл): Erstwhile Records
Номер по каталогу: erstwhile 060-3
Страна: Австрия, Великобритания
Аудио кодек: FLAC (*.flac)
Тип рипа: tracks+.cue
Битрейт аудио: lossless
Продолжительность: 2:36:44
Источник (релизер): вот.сиди (denti)
Наличие сканов в содержимом раздачи: нет
Треклист:
1.1 Exact Dimension Without Insistence (Frey) (20:00)
1.2 Solo With Accompaniment (Cardew) (26:09)
2.1 nariyamu (Malfatti) (39:08)
2.2 Pollock '82 (Rowe) (18:00)
3.1 improvisation (6:18)
3.2 improvisation (46:54)
recorded in Vienna in November 2010
 
Лог создания рипа
 
i
Exact Audio Copy V1.0 beta 1 from 15. November 2010
EAC extraction logfile from 16. May 2011, 18:30
Keith Rowe and Radu Malfatti / Ф
Used drive : TSSTcorpCD/DVDW SH-S182D Adapter: 1 ID: 0
Read mode : Secure
Utilize accurate stream : Yes
Defeat audio cache : Yes
Make use of C2 pointers : No
Read offset correction : 6
Overread into Lead-In and Lead-Out : No
Fill up missing offset samples with silence : Yes
Delete leading and trailing silent blocks : No
Null samples used in CRC calculations : Yes
Used interface : Native Win32 interface for Win NT & 2000
Gap handling : Appended to previous track
Used output format : User Defined Encoder
Selected bitrate : 128 kBit/s
Quality : High
Add ID3 tag : No
Command line compressor : C:\Program Files\Exact Audio Copy\Flac\flac.exe
Additional command line options : -V -8 -T "artist=%a" -T "title=%t" -T "album=%g" -T "date=%y" -T "tracknumber=%n" -T "genre=%m" %s
TOC of the extracted CD
Track | Start | Length | Start sector | End sector
---------------------------------------------------------
1 | 0:00.00 | 20:13.48 | 0 | 91022
2 | 20:13.48 | 26:09.31 | 91023 | 208728
Track 1
Filename D:\EAC Rips\Keith Rowe and Radu Malfatti - 2011 - Ф\01 - Exact Dimension Without Insistence.wav
Pre-gap length 0:00:02.00
Peak level 36.1 %
Extraction speed 5.7 X
Track quality 100.0 %
Test CRC 21B3A065
Copy CRC 21B3A065
Track not present in AccurateRip database
Copy OK
Track 2
Filename D:\EAC Rips\Keith Rowe and Radu Malfatti - 2011 - Ф\02 - Solo With Accompaniment.wav
Pre-gap length 0:00:13.69
Peak level 67.0 %
Extraction speed 8.0 X
Track quality 100.0 %
Test CRC 0EBE1153
Copy CRC 0EBE1153
Track not present in AccurateRip database
Copy OK
None of the tracks are present in the AccurateRip database
No errors occurred
End of status report
==== Log checksum FCE544CD31F733D3A2D7337DA0E07AF2B21EC9253987179E084B3704C959E8ED ====
 
ii
Exact Audio Copy V1.0 beta 1 from 15. November 2010
EAC extraction logfile from 16. May 2011, 18:49
Keith Rowe & Radu Malfatti / Ф [disc 2]
Used drive : TSSTcorpCD/DVDW SH-S182D Adapter: 1 ID: 0
Read mode : Secure
Utilize accurate stream : Yes
Defeat audio cache : Yes
Make use of C2 pointers : No
Read offset correction : 6
Overread into Lead-In and Lead-Out : No
Fill up missing offset samples with silence : Yes
Delete leading and trailing silent blocks : No
Null samples used in CRC calculations : Yes
Used interface : Native Win32 interface for Win NT & 2000
Gap handling : Appended to previous track
Used output format : User Defined Encoder
Selected bitrate : 128 kBit/s
Quality : High
Add ID3 tag : No
Command line compressor : C:\Program Files\Exact Audio Copy\Flac\flac.exe
Additional command line options : -V -8 -T "artist=%a" -T "title=%t" -T "album=%g" -T "date=%y" -T "tracknumber=%n" -T "genre=%m" %s
TOC of the extracted CD
Track | Start | Length | Start sector | End sector
---------------------------------------------------------
1 | 0:00.00 | 39:23.11 | 0 | 177235
2 | 39:23.11 | 18:00.20 | 177236 | 258255
Track 1
Filename D:\EAC Rips\Keith Rowe & Radu Malfatti - 2012 - Ф [disc 2]\01 - Nariyamu.wav
Pre-gap length 0:00:02.00
Peak level 28.0 %
Extraction speed 6.7 X
Track quality 100.0 %
Test CRC 93B2D3B3
Copy CRC 93B2D3B3
Track not present in AccurateRip database
Copy OK
Track 2
Filename D:\EAC Rips\Keith Rowe & Radu Malfatti - 2012 - Ф [disc 2]\02 - Pollock '82.wav
Pre-gap length 0:00:14.56
Peak level 53.4 %
Extraction speed 9.1 X
Track quality 100.0 %
Test CRC E861175B
Copy CRC E861175B
Track not present in AccurateRip database
Copy OK
None of the tracks are present in the AccurateRip database
No errors occurred
End of status report
==== Log checksum FD63AD7C78BBFA37928FBEC324EB3C1D28888560070B2833DC9DB102947577E0 ====
 
iii
Exact Audio Copy V1.0 beta 1 from 15. November 2010
EAC extraction logfile from 16. May 2011, 19:16
Keith Rowe & Radu Malfatti / Ф [disc 3]
Used drive : TSSTcorpCD/DVDW SH-S182D Adapter: 1 ID: 0
Read mode : Secure
Utilize accurate stream : Yes
Defeat audio cache : Yes
Make use of C2 pointers : No
Read offset correction : 6
Overread into Lead-In and Lead-Out : No
Fill up missing offset samples with silence : Yes
Delete leading and trailing silent blocks : No
Null samples used in CRC calculations : Yes
Used interface : Native Win32 interface for Win NT & 2000
Gap handling : Appended to previous track
Used output format : User Defined Encoder
Selected bitrate : 128 kBit/s
Quality : High
Add ID3 tag : No
Command line compressor : C:\Program Files\Exact Audio Copy\Flac\flac.exe
Additional command line options : -V -8 -T "artist=%a" -T "title=%t" -T "album=%g" -T "date=%y" -T "tracknumber=%n" -T "genre=%m" %s
TOC of the extracted CD
Track | Start | Length | Start sector | End sector
---------------------------------------------------------
1 | 0:00.00 | 6:17.72 | 0 | 28346
2 | 6:17.72 | 46:54.28 | 28347 | 239424
Track 1
Filename D:\EAC Rips\Keith Rowe & Radu Malfatti - 2011 - Ф [disc 3]\01 - Improvisation part 1.wav
Pre-gap length 0:00:02.00
Peak level 75.4 %
Extraction speed 4.6 X
Track quality 100.0 %
Test CRC C5264278
Copy CRC C5264278
Track not present in AccurateRip database
Copy OK
Track 2
Filename D:\EAC Rips\Keith Rowe & Radu Malfatti - 2011 - Ф [disc 3]\02 - Improvisation part 2.wav
Peak level 74.8 %
Extraction speed 7.6 X
Track quality 100.0 %
Test CRC C421DECC
Copy CRC C421DECC
Track not present in AccurateRip database
Copy OK
None of the tracks are present in the AccurateRip database
No errors occurred
End of status report
==== Log checksum 81AD40E3DC4E07A444198DD4D9E3514860BFED43D875E80D9E59927222E50EF5 ====
 
Содержание индексной карты (.CUE)
 
i
REM GENRE Avantgarde
REM DATE 2011
REM DISCID 0B0ADF02
REM COMMENT "ExactAudioCopy v1.0b1"
FILE "Keith Rowe and Radu Malfatti - 2011 - .\01 - Exact Dimension Without Insistence.wav" WAVE
TRACK 01 AUDIO
INDEX 01 00:00:00
TRACK 02 AUDIO
INDEX 00 19:59:71
FILE "Keith Rowe and Radu Malfatti - 2011 - .\02 - Solo With Accompaniment.wav" WAVE
INDEX 01 00:00:00
 
ii
REM GENRE Avantgarde
REM DATE 2012
REM DISCID 120D7302
REM COMMENT "ExactAudioCopy v1.0b1"
FILE "Keith Rowe & Radu Malfatti - 2012 - . [disc 2]\01 - Nariyamu.wav" WAVE
TRACK 01 AUDIO
INDEX 01 00:00:00
TRACK 02 AUDIO
INDEX 00 39:08:44
FILE "Keith Rowe & Radu Malfatti - 2012 - . [disc 2]\02 - Pollock '82.wav" WAVE
INDEX 01 00:00:00
 
iii
REM GENRE Avantgarde
REM DATE 2011
REM DISCID 150C7802
REM COMMENT "ExactAudioCopy v1.0b1"
FILE "Keith Rowe & Radu Malfatti - 2011 - . [disc 3]\01 - Improvisation part 1.wav" WAVE
TRACK 01 AUDIO
INDEX 01 00:00:00
FILE "Keith Rowe & Radu Malfatti - 2011 - . [disc 3]\02 - Improvisation part 2.wav" WAVE
TRACK 02 AUDIO
INDEX 01 00:00:00
 
Лог проверки качества
 
i
AUDIOCHECKER v2.0 beta (build 457) - by Dester - opdester@freemail.hu
~~~~~~~~~~~~~~~~~~~~~~~~~~~~~~~~~~
-=== DO NOT EDIT THIS FILE! ===-
Path: ...\Keith Rowe and Radu Malfatti - 2011 - Ф
1 -=- 01 - Exact Dimension Without Insistence.flac -=- CDDA (100%)
2 -=- 02 - Solo With Accompaniment.flac -=- CDDA (49%)
Summary 74,50% CDDA
119774148
 
ii
AUDIOCHECKER v2.0 beta (build 457) - by Dester - opdester@freemail.hu
~~~~~~~~~~~~~~~~~~~~~~~~~~~~~~~~~~
-=== DO NOT EDIT THIS FILE! ===-
Path: ...\Keith Rowe & Radu Malfatti - 2011 - Ф [disc 2]
1 -=- 01 - Nariyamu.flac -=- CDDA (100%)
2 -=- 02 - Pollock '82.flac -=- CDDA (100%)
Summary 100,00% CDDA
267605492
 
iii
AUDIOCHECKER v2.0 beta (build 457) - by Dester - opdester@freemail.hu
~~~~~~~~~~~~~~~~~~~~~~~~~~~~~~~~~~
-=== DO NOT EDIT THIS FILE! ===-
Path: ...\Keith Rowe & Radu Malfatti - 2011 - Ф [disc 3]
1 -=- 01 - Improvisation part 1.flac -=- CDDA (99%)
2 -=- 02 - Improvisation part 2.flac -=- CDDA (100%)
Summary 99,50% CDDA
50561940
 
Состав
Keith Rowe guitar, electronics
Radu Malfatti trombone
Any questions -> support@pro-jazz.com. По всем вопросам пишите -> support@pro-jazz.com
11:42
140
Нет комментариев. Ваш будет первым!