Вы используете незарегистрированную версию компонента "Вкладки"!

Поиск

(Avant-Garde, Free Improvisation) Paolo Angeli Plays Frith & Bjork - Tessuti - 2007, FLAC (tracks+.cue) lossless

(Avant-Garde, Free Improvisation) Paolo Angeli Plays Frith & Bjork - Tessuti - 2007, FLAC (tracks+.cue) lossless
Треклист:
Paolo Angeli Plays Frith & Bjork / Tessuti
Жанр: Avant-Garde, Free Improvisation
Страна-производитель диска: US
Год издания диска: 2007
Издатель (лейбл): ReR Megacorp
Номер по каталогу: ReR PA3
Аудио кодек: FLAC (*.flac)
Тип рипа: tracks+.cue
Битрейт аудио: lossless
Продолжительность: 63:08
Источник (релизер): what.cd (gaspart)
Наличие сканов в содержимом раздачи: нет
Треклист:
01 La Pianta Del Piede 2:22
02 Ahead In The Sand 7:40
03 Unravel 7:03
04 The Hand That Bites 8:24
05 Mezzo Passo 2:31
06 Lelekovice 1:55
07 Desired Constellation 6:05
08 Danza Di Un Fermaciuffi 1:55
09 One Day 3:52
10 Tessuti 1:47
11 Athena Mina 2:43
12 Navajo 4:38
Bonus Tracks
13 In Umido 1:46
14 Anchor Song / The Hand That Bites 5:13
15 Hyper-ballad 5:05
 
Лог создания рипа
Exact Audio Copy V0.99 prebeta 5 from 4. May 2009
EAC extraction logfile from 6. May 2010, 21:03
Tessuti: Angeli Plays Frith & Bjцrk / Paolo Angeli
Used drive : PLEXTOR DVDR PX-880SA Adapter: 2 ID: 0
Read mode : Secure
Utilize accurate stream : Yes
Defeat audio cache : Yes
Make use of C2 pointers : No
Read offset correction : 6
Overread into Lead-In and Lead-Out : No
Fill up missing offset samples with silence : Yes
Delete leading and trailing silent blocks : No
Null samples used in CRC calculations : Yes
Used interface : Native Win32 interface for Win NT & 2000
Gap handling : Appended to previous track
Used output format : User Defined Encoder
Selected bitrate : 256 kBit/s
Quality : High
Add ID3 tag : No
Command line compressor : C:\Program Files\FLAC\flac.exe
Additional command line options : -V -8 -T "artist=%a" -T "title=%t" -T "album=%g" -T "date=%y" -T "tracknumber=%n" -T "genre=%m" %s
TOC of the extracted CD
Track | Start | Length | Start sector | End sector
---------------------------------------------------------
1 | 0:00.00 | 2:22.27 | 0 | 10676
2 | 2:22.27 | 7:40.32 | 10677 | 45208
3 | 10:02.59 | 7:03.39 | 45209 | 76972
4 | 17:06.23 | 8:24.15 | 76973 | 114787
5 | 25:30.38 | 2:31.66 | 114788 | 126178
6 | 28:02.29 | 1:55.40 | 126179 | 134843
7 | 29:57.69 | 6:05.69 | 134844 | 162287
8 | 36:03.63 | 1:55.36 | 162288 | 170948
9 | 37:59.24 | 3:52.71 | 170949 | 188419
10 | 41:52.20 | 1:47.43 | 188420 | 196487
11 | 43:39.63 | 2:43.26 | 196488 | 208738
12 | 46:23.14 | 4:38.61 | 208739 | 229649
13 | 51:02.00 | 1:46.10 | 229650 | 237609
14 | 52:48.10 | 5:13.73 | 237610 | 261157
15 | 58:02.08 | 5:05.68 | 261158 | 284100
Track 1
Filename D:\ZIK_BOB\ROCK et autres\Paolo Angeli Plays Frith & Bjцrk [2002] Tessuti\01. La Pianta Del Piede (Angeli).wav
Pre-gap length 0:00:02.00
Peak level 98.8 %
Track quality 100.0 %
Test CRC D9F60846
Copy CRC D9F60846
Accurately ripped (confidence 2) [5F3D8E29]
Copy OK
Track 2
Filename D:\ZIK_BOB\ROCK et autres\Paolo Angeli Plays Frith & Bjцrk [2002] Tessuti\02. Ahead In The Sand (Frith).wav
Peak level 98.8 %
Track quality 100.0 %
Test CRC 3CDD424D
Copy CRC 3CDD424D
Accurately ripped (confidence 2) [3D867BA6]
Copy OK
Track 3
Filename D:\ZIK_BOB\ROCK et autres\Paolo Angeli Plays Frith & Bjцrk [2002] Tessuti\03. Unravel (Bjцrk).wav
Peak level 98.8 %
Track quality 100.0 %
Test CRC 5E6B3BAD
Copy CRC 5E6B3BAD
Accurately ripped (confidence 2) [63AFDD0F]
Copy OK
Track 4
Filename D:\ZIK_BOB\ROCK et autres\Paolo Angeli Plays Frith & Bjцrk [2002] Tessuti\04. The Hand That Bites (Frith,Cora,Parkins).wav
Peak level 98.8 %
Track quality 100.0 %
Test CRC 82B4FD8C
Copy CRC 82B4FD8C
Accurately ripped (confidence 2) [7DFE7A6F]
Copy OK
Track 5
Filename D:\ZIK_BOB\ROCK et autres\Paolo Angeli Plays Frith & Bjцrk [2002] Tessuti\05. Mezzo Passo (Angeli).wav
Peak level 60.1 %
Track quality 100.0 %
Test CRC 07ED693F
Copy CRC 07ED693F
Accurately ripped (confidence 2) [99F29E4F]
Copy OK
Track 6
Filename D:\ZIK_BOB\ROCK et autres\Paolo Angeli Plays Frith & Bjцrk [2002] Tessuti\06. Lelekovice (Frith).wav
Peak level 98.8 %
Track quality 99.9 %
Test CRC AA19E9F9
Copy CRC AA19E9F9
Accurately ripped (confidence 2) [F4B8AE4D]
Copy OK
Track 7
Filename D:\ZIK_BOB\ROCK et autres\Paolo Angeli Plays Frith & Bjцrk [2002] Tessuti\07. Desired Constellation (Bjцrk).wav
Peak level 98.8 %
Track quality 99.9 %
Test CRC 76C98A6E
Copy CRC 76C98A6E
Accurately ripped (confidence 2) [6F39C3F3]
Copy OK
Track 8
Filename D:\ZIK_BOB\ROCK et autres\Paolo Angeli Plays Frith & Bjцrk [2002] Tessuti\08. Danza Di Un Fermaciuffi (Angeli).wav
Peak level 98.8 %
Track quality 100.0 %
Test CRC 1A6E9B79
Copy CRC 1A6E9B79
Accurately ripped (confidence 2) [C4F5F97D]
Copy OK
Track 9
Filename D:\ZIK_BOB\ROCK et autres\Paolo Angeli Plays Frith & Bjцrk [2002] Tessuti\09. One Day (Bjцrk).wav
Peak level 98.8 %
Track quality 100.0 %
Test CRC 2548C1F3
Copy CRC 2548C1F3
Accurately ripped (confidence 2) [83A63A4C]
Copy OK
Track 10
Filename D:\ZIK_BOB\ROCK et autres\Paolo Angeli Plays Frith & Bjцrk [2002] Tessuti\10. Tessuti (Angeli).wav
Peak level 98.8 %
Track quality 99.9 %
Test CRC 325BB5F3
Copy CRC 325BB5F3
Accurately ripped (confidence 2) [662C6B32]
Copy OK
Track 11
Filename D:\ZIK_BOB\ROCK et autres\Paolo Angeli Plays Frith & Bjцrk [2002] Tessuti\11. Athena Mina (Angeli).wav
Peak level 98.8 %
Track quality 99.9 %
Test CRC 7064FECA
Copy CRC 7064FECA
Accurately ripped (confidence 2) [A3B2F566]
Copy OK
Track 12
Filename D:\ZIK_BOB\ROCK et autres\Paolo Angeli Plays Frith & Bjцrk [2002] Tessuti\12. Navajo (Frith).wav
Peak level 98.8 %
Track quality 100.0 %
Test CRC F7915B22
Copy CRC F7915B22
Accurately ripped (confidence 2) [93B0DF94]
Copy OK
Track 13
Filename D:\ZIK_BOB\ROCK et autres\Paolo Angeli Plays Frith & Bjцrk [2002] Tessuti\13. In Umido (Angeli).wav
Peak level 98.8 %
Track quality 100.0 %
Test CRC 1673D8C1
Copy CRC 1673D8C1
Accurately ripped (confidence 2) [49CED632]
Copy OK
Track 14
Filename D:\ZIK_BOB\ROCK et autres\Paolo Angeli Plays Frith & Bjцrk [2002] Tessuti\14. Anchor Song,The Hand That Bites (Bjцrk,Frith).wav
Peak level 98.8 %
Track quality 100.0 %
Test CRC D4AD1474
Copy CRC D4AD1474
Accurately ripped (confidence 2) [32273955]
Copy OK
Track 15
Filename D:\ZIK_BOB\ROCK et autres\Paolo Angeli Plays Frith & Bjцrk [2002] Tessuti\15. Hyper-Ballad (Bjцrk).wav
Peak level 98.8 %
Track quality 100.0 %
Test CRC 6681FF88
Copy CRC 6681FF88
Accurately ripped (confidence 2) [329B07DD]
Copy OK
All tracks accurately ripped
No errors occurred
End of status report
 
Содержание индексной карты (.CUE)
REM GENRE
REM DATE
REM DISCID CB0ECC0F
REM COMMENT "ExactAudioCopy v0.99pb5"
REM COMMENT "Cue Created at http://eachelper.okamihost.com/"
PERFORMER "Tessuti: Angeli Plays Frith & Bjцrk"
TITLE "Paolo Angeli"
FILE "Tessuti: Angeli Plays Frith & Bjцrk - Paolo Angeli.wav" WAVE
TRACK 01 AUDIO
TITLE "La Pianta Del Piede (Angeli)"
PERFORMER "Tessuti: Angeli Plays Frith & Bjцrk"
INDEX 01 00:00:00
TRACK 02 AUDIO
TITLE "Ahead In The Sand (Frith)"
PERFORMER "Tessuti: Angeli Plays Frith & Bjцrk"
INDEX 01 02:22:27
TRACK 03 AUDIO
TITLE "Unravel (Bjцrk)"
PERFORMER "Tessuti: Angeli Plays Frith & Bjцrk"
INDEX 01 10:02:59
TRACK 04 AUDIO
TITLE "The Hand That Bites (Frith,Cora,Parkins)"
PERFORMER "Tessuti: Angeli Plays Frith & Bjцrk"
INDEX 01 17:06:23
TRACK 05 AUDIO
TITLE "Mezzo Passo (Angeli)"
PERFORMER "Tessuti: Angeli Plays Frith & Bjцrk"
INDEX 01 25:30:38
TRACK 06 AUDIO
TITLE "Lelekovice (Frith)"
PERFORMER "Tessuti: Angeli Plays Frith & Bjцrk"
INDEX 01 28:02:29
TRACK 07 AUDIO
TITLE "Desired Constellation (Bjцrk)"
PERFORMER "Tessuti: Angeli Plays Frith & Bjцrk"
INDEX 01 29:57:69
TRACK 08 AUDIO
TITLE "Danza Di Un Fermaciuffi (Angeli)"
PERFORMER "Tessuti: Angeli Plays Frith & Bjцrk"
INDEX 01 36:03:63
TRACK 09 AUDIO
TITLE "One Day (Bjцrk)"
PERFORMER "Tessuti: Angeli Plays Frith & Bjцrk"
INDEX 01 37:59:24
TRACK 10 AUDIO
TITLE "Tessuti (Angeli)"
PERFORMER "Tessuti: Angeli Plays Frith & Bjцrk"
INDEX 01 41:52:20
TRACK 11 AUDIO
TITLE "Athena Mina (Angeli)"
PERFORMER "Tessuti: Angeli Plays Frith & Bjцrk"
INDEX 01 43:39:63
TRACK 12 AUDIO
TITLE "Navajo (Frith)"
PERFORMER "Tessuti: Angeli Plays Frith & Bjцrk"
INDEX 01 46:23:14
TRACK 13 AUDIO
TITLE "In Umido (Angeli)"
PERFORMER "Tessuti: Angeli Plays Frith & Bjцrk"
INDEX 01 51:02:00
TRACK 14 AUDIO
TITLE "Anchor Song,The Hand That Bites (Bjцrk,Frith)"
PERFORMER "Tessuti: Angeli Plays Frith & Bjцrk"
INDEX 01 52:48:10
TRACK 15 AUDIO
TITLE "Hyper Ballad (Bjцrk)"
PERFORMER "Tessuti: Angeli Plays Frith & Bjцrk"
INDEX 01 58:02:08
Доп. информация:
Recorded on 29-30 May, 2006 at Castello di Mongiorgio using 14 direct outputs. No overdubs and no loops, except track 2 (guitar loop from 5.46 to 6.20), track 6 (radio) and track 12 (ghost voice).
 
Состав
Arranged By, Producer – Paolo Angeli
Artwork By – Ale Sordi
Edited By [Mastering], Producer [Associated] – Roberto Monari
Engineer [Sound] – Roberto Monari
Guitar [Prepared Sardinian] – Paolo Angeli
Mixed By – Paolo Angeli, Roberto Monari
Photography – Nanni Angeli
Written-By – Bjork (tracks: 3, 7, 9, 14, 15), Frith* (tracks: 2, 4, 6, 12, 14), Angeli* (tracks: 1, 5, 8, 10, 11, 13), Cora* (tracks: 4), Parkins* (tracks: 4)
Any questions -> support@pro-jazz.com. По всем вопросам пишите -> support@pro-jazz.com
11:43
138
Нет комментариев. Ваш будет первым!