Поиск

(Free Improvisation, Experimental, Avant-Garde Jazz) [CD] Mythic Birds (Jason Stein, Jeff Kimmel, Keefe Jackson, Brian Labycz) - The Name By Which The World Knows Them - 2012, FLAC (tracks+.cue), lossless

(Free Improvisation, Experimental, Avant-Garde Jazz) [CD] Mythic Birds (Jason Stein, Jeff Kimmel, Keefe Jackson, Brian Labycz) - The Name By Which The World Knows Them - 2012, FLAC (tracks+.cue), lossless
Треклист:
Mythic Birds / The Name By Which The World Knows Them
Жанр: Free Improvisation, Experimental, Avant-Garde Jazz
Носитель: CD
Страна-производитель диска (релиза): US
Год издания: 2012
Издатель (лейбл): Peira
Номер по каталогу: PM13
Аудиокодек: FLAC (*.flac)
Тип рипа: tracks+.cue
Битрейт аудио: lossless
Продолжительность: 39:24
Источник (релизер): cd
Наличие сканов в содержимом раздачи: нет
Треклист:
1. Without A Common Memory
2. Forbidden Generosity
3. Let Go Of The Long Tone
4. Dissimulation
5. The Name By Which The World Knows Them Is Not The One They Themselves Utter
6. Realms Of Dream And Intoxication
 
Лог создания рипа
Exact Audio Copy V1.0 beta 3 from 29. August 2011
EAC extraction logfile from 21. August 2015, 16:12
Mythic Birds / The Name By Which The World Knows Them
Used drive : ASUS DRW-24F1ST a Adapter: 0 ID: 0
Read mode : Secure
Utilize accurate stream : Yes
Defeat audio cache : Yes
Make use of C2 pointers : No
Read offset correction : 6
Overread into Lead-In and Lead-Out : No
Fill up missing offset samples with silence : Yes
Delete leading and trailing silent blocks : No
Null samples used in CRC calculations : Yes
Used interface : Native Win32 interface for Win NT & 2000
Gap handling : Appended to previous track
Used output format : User Defined Encoder
Selected bitrate : 320 kBit/s
Quality : High
Add ID3 tag : No
Command line compressor : D:\Programs\Exact Audio Copy\Flac\flac.exe
Additional command line options : -V -8 -T "Genre=%genre%" -T "Artist=%artist%" -T "Title=%title%" -T "Album=%albumtitle%" -T "Date=%year%" -T "Tracknumber=%tracknr%" -T "Comment=%comment%" %source%
TOC of the extracted CD
Track | Start | Length | Start sector | End sector
---------------------------------------------------------
1 | 0:00.00 | 5:08.25 | 0 | 23124
2 | 5:08.25 | 3:22.03 | 23125 | 38277
3 | 8:30.28 | 7:55.26 | 38278 | 73928
4 | 16:25.54 | 13:16.08 | 73929 | 133636
5 | 29:41.62 | 4:34.23 | 133637 | 154209
6 | 34:16.10 | 5:08.21 | 154210 | 177330
Track 1
Filename D:\EAC\01 Without A Common Memory.wav
Pre-gap length 0:00:02.00
Peak level 100.0 %
Extraction speed 5.1 X
Track quality 100.0 %
Test CRC 8DFD6800
Copy CRC 8DFD6800
Copy OK
Track 2
Filename D:\EAC\02 Forbidden Generosity.wav
Peak level 86.5 %
Extraction speed 5.3 X
Track quality 100.0 %
Test CRC 6936F0CF
Copy CRC 6936F0CF
Copy OK
Track 3
Filename D:\EAC\03 Let Go Of The Long Tone.wav
Peak level 100.0 %
Extraction speed 6.4 X
Track quality 100.0 %
Test CRC AF2B32D8
Copy CRC AF2B32D8
Copy OK
Track 4
Filename D:\EAC\04 Dissimulation.wav
Peak level 100.0 %
Extraction speed 7.2 X
Track quality 99.9 %
Test CRC 0EDF07ED
Copy CRC 0EDF07ED
Copy OK
Track 5
Filename D:\EAC\05 The Name By Which The World Knows Them Is Not The One They Themselves Utter.wav
Peak level 100.0 %
Extraction speed 7.5 X
Track quality 100.0 %
Test CRC A5220D71
Copy CRC A5220D71
Copy OK
Track 6
Filename D:\EAC\06 Realms Of Dream And Intoxication.wav
Peak level 100.0 %
Extraction speed 7.9 X
Track quality 100.0 %
Test CRC BF5CA718
Copy CRC BF5CA718
Copy OK
No errors occurred
End of status report
==== Log checksum BCB971EA29639CE7216AF641DC6CBD2513420638348E2A7DDBCF634EF51811C0 ====
 
Содержание индексной карты (.CUE)
REM GENRE Jazz
REM DATE 2011
REM DISCID 48093C06
REM COMMENT "ExactAudioCopy v1.0b3"
PERFORMER "Mythic Birds"
TITLE "The Name By Which The World Knows Them"
FILE "01 Without A Common Memory.wav" WAVE
TRACK 01 AUDIO
TITLE "Without A Common Memory"
PERFORMER "Mythic Birds"
ISRC 000000000000
INDEX 01 00:00:00
FILE "02 Forbidden Generosity.wav" WAVE
TRACK 02 AUDIO
TITLE "Forbidden Generosity"
PERFORMER "Mythic Birds"
ISRC 000000000000
INDEX 01 00:00:00
FILE "03 Let Go Of The Long Tone.wav" WAVE
TRACK 03 AUDIO
TITLE "Let Go Of The Long Tone"
PERFORMER "Mythic Birds"
ISRC 000000000000
INDEX 01 00:00:00
FILE "04 Dissimulation.wav" WAVE
TRACK 04 AUDIO
TITLE "Dissimulation"
PERFORMER "Mythic Birds"
ISRC 000000000000
INDEX 01 00:00:00
FILE "05 The Name By Which The World Knows Them Is Not The One They Themselves Utter.wav" WAVE
TRACK 05 AUDIO
TITLE "The Name By Which The World Knows Them Is Not The One They Themselves Utter"
PERFORMER "Mythic Birds"
ISRC 000000000000
INDEX 01 00:00:00
FILE "06 Realms Of Dream And Intoxication.wav" WAVE
TRACK 06 AUDIO
TITLE "Realms Of Dream And Intoxication"
PERFORMER "Mythic Birds"
ISRC 000000000000
INDEX 01 00:00:00
Доп. информация: Recorded at Strabe Studio, Chicago March 2011.
 
Состав
Bass Clarinet – Jason Stein, Jeff Kimmel
Bass Clarinet, Contrabass Clarinet – Keefe Jackson
Synthesizer [Modular Synthesizer] – Brian Labycz
По всем вопросам пишите личное сообщение пользователю M0p94ok.
15:07
170
Нет комментариев. Ваш будет первым!