Вы используете незарегистрированную версию компонента "Вкладки"!

Поиск

(Avant-Garde Jazz, Free Improvisation, Modern Jazz, Norway) [CD] Roundtrip - Two Way Street - 2005, FLAC (tracks+.cue), lossless

(Avant-Garde Jazz, Free Improvisation, Modern Jazz, Norway) [CD] Roundtrip - Two Way Street - 2005, FLAC (tracks+.cue), lossless
Треклист:
Roundtrip - Two Way Street
Жанр: Avant-Garde Jazz, Free Improvisation, Modern Jazz, Norway
Носитель: CD
Страна-производитель диска (релиза): Norway
Год издания: 2005
Издатель (лейбл): Jazzaway Records
Номер по каталогу: JARCD010
Страна исполнителя (группы): Norway
Аудиокодек: FLAC (*.flac)
Тип рипа: tracks+.cue
Битрейт аудио: lossless
Продолжительность: 41:43
Источник (релизер): what.cd (zopatista)
Наличие сканов в содержимом раздачи: нет
Треклист:
01. Gibsy Love (06:53)
02. Jimmy (05:17)
03. Sweden (05:56)
04. Free Two to Five (03:18)
05. P.B (05:55)
06. A.A (06:25)
07. Gushes From the Past (04:36)
08. Texas (02:13)
09. Free Seven (01:10)
 
Лог создания рипа
X Lossless Decoder version 20101010 (123.3)
XLD extraction logfile from 2010-10-27 17:47:34 +0100
Roundtrip / Two Way Street
Used drive : HL-DT-ST DVDRW GSA-S10N (revision AP12)
Use cdparanoia mode : YES (CDParanoia III 10.2 engine)
Disable audio cache : OK for the drive with cache less than 2750KB
Make use of C2 pointers : NO
Read offset correction : 667
Max retry count : 100
Gap status : Analyzed, Appended
TOC of the extracted CD
Track | Start | Length | Start sector | End sector
---------------------------------------------------------
1 | 00:00:00 | 06:53:30 | 0 | 31004
2 | 06:53:30 | 05:17:17 | 31005 | 54796
3 | 12:10:47 | 05:55:67 | 54797 | 81488
4 | 18:06:39 | 03:18:29 | 81489 | 96367
5 | 21:24:68 | 05:55:36 | 96368 | 123028
6 | 27:20:29 | 06:25:37 | 123029 | 151940
7 | 33:45:66 | 04:35:38 | 151941 | 172603
8 | 38:21:29 | 02:12:64 | 172604 | 182567
9 | 40:34:18 | 01:10:36 | 182568 | 187853
All Tracks
Album gain : -4.20 dB
Peak : 0.956635
Track 01
Filename : /Unsorted MP3/00 In Progress/Roundtrip - 2005 - Two Way Street/01 - Gibsy Love.flac
Pre-gap length : 00:02:00
Track gain : -4.94 dB
Peak : 0.956635
CRC32 hash (test run) : 4FD46428
CRC32 hash : 4FD46428
CRC32 hash (skip zero) : A9093B07
AccurateRip signature : D527E8C7
->Accurately ripped! (confidence 1)
Statistics
Read error : 0
Skipped (treated as error) : 0
Edge jitter error (maybe fixed) : 0
Atom jitter error (maybe fixed) : 0
Drift error (maybe fixed) : 0
Dropped bytes error (maybe fixed) : 0
Duplicated bytes error (maybe fixed) : 0
Inconsistency in error sectors : 0
Track 02
Filename : /Unsorted MP3/00 In Progress/Roundtrip - 2005 - Two Way Street/02 - Jimmy.flac
Pre-gap length : 00:03:38
Track gain : -3.12 dB
Peak : 0.955994
CRC32 hash (test run) : 0759FA28
CRC32 hash : 0759FA28
CRC32 hash (skip zero) : 6CAD914C
AccurateRip signature : 23FAFD53
->Accurately ripped! (confidence 1)
Statistics
Read error : 0
Skipped (treated as error) : 0
Edge jitter error (maybe fixed) : 0
Atom jitter error (maybe fixed) : 0
Drift error (maybe fixed) : 0
Dropped bytes error (maybe fixed) : 0
Duplicated bytes error (maybe fixed) : 0
Inconsistency in error sectors : 0
Track 03
Filename : /Unsorted MP3/00 In Progress/Roundtrip - 2005 - Two Way Street/03 - Sweden.flac
Pre-gap length : 00:02:07
Track gain : -3.05 dB
Peak : 0.956329
CRC32 hash (test run) : ED314FE9
CRC32 hash : ED314FE9
CRC32 hash (skip zero) : FB27233C
AccurateRip signature : 43C40EEB
->Accurately ripped! (confidence 1)
Statistics
Read error : 0
Skipped (treated as error) : 0
Edge jitter error (maybe fixed) : 0
Atom jitter error (maybe fixed) : 0
Drift error (maybe fixed) : 0
Dropped bytes error (maybe fixed) : 0
Duplicated bytes error (maybe fixed) : 0
Inconsistency in error sectors : 0
Track 04
Filename : /Unsorted MP3/00 In Progress/Roundtrip - 2005 - Two Way Street/04 - Free Two to Five.flac
Pre-gap length : 00:03:52
Track gain : -1.26 dB
Peak : 0.955811
CRC32 hash (test run) : D66D6095
CRC32 hash : D66D6095
CRC32 hash (skip zero) : 35AF1420
AccurateRip signature : 79455AA8
->Accurately ripped! (confidence 1)
Statistics
Read error : 0
Skipped (treated as error) : 0
Edge jitter error (maybe fixed) : 0
Atom jitter error (maybe fixed) : 0
Drift error (maybe fixed) : 0
Dropped bytes error (maybe fixed) : 0
Duplicated bytes error (maybe fixed) : 0
Inconsistency in error sectors : 0
Track 05
Filename : /Unsorted MP3/00 In Progress/Roundtrip - 2005 - Two Way Street/05 - P.B.flac
Pre-gap length : 00:05:28
Track gain : -3.77 dB
Peak : 0.955902
CRC32 hash (test run) : CBB0DE95
CRC32 hash : CBB0DE95
CRC32 hash (skip zero) : 0F9BBC6B
AccurateRip signature : 84CAAED9
->Accurately ripped! (confidence 1)
Statistics
Read error : 0
Skipped (treated as error) : 0
Edge jitter error (maybe fixed) : 0
Atom jitter error (maybe fixed) : 0
Drift error (maybe fixed) : 0
Dropped bytes error (maybe fixed) : 0
Duplicated bytes error (maybe fixed) : 0
Inconsistency in error sectors : 0
Track 06
Filename : /Unsorted MP3/00 In Progress/Roundtrip - 2005 - Two Way Street/06 - A.A.flac
Pre-gap length : 00:03:01
Track gain : -4.24 dB
Peak : 0.956085
CRC32 hash (test run) : C47D5033
CRC32 hash : C47D5033
CRC32 hash (skip zero) : 9BA2CC5E
AccurateRip signature : D55B9087
->Accurately ripped! (confidence 1)
Statistics
Read error : 0
Skipped (treated as error) : 0
Edge jitter error (maybe fixed) : 0
Atom jitter error (maybe fixed) : 0
Drift error (maybe fixed) : 0
Dropped bytes error (maybe fixed) : 0
Duplicated bytes error (maybe fixed) : 0
Inconsistency in error sectors : 0
Track 07
Filename : /Unsorted MP3/00 In Progress/Roundtrip - 2005 - Two Way Street/07 - Gushes From the Past.flac
Pre-gap length : 00:03:25
Track gain : -0.05 dB
Peak : 0.956299
CRC32 hash (test run) : 57A1DBDE
CRC32 hash : 57A1DBDE
CRC32 hash (skip zero) : 64CAA7F0
AccurateRip signature : 932604D8
->Accurately ripped! (confidence 1)
Statistics
Read error : 0
Skipped (treated as error) : 0
Edge jitter error (maybe fixed) : 0
Atom jitter error (maybe fixed) : 0
Drift error (maybe fixed) : 0
Dropped bytes error (maybe fixed) : 0
Duplicated bytes error (maybe fixed) : 0
Inconsistency in error sectors : 0
Track 08
Filename : /Unsorted MP3/00 In Progress/Roundtrip - 2005 - Two Way Street/08 - Texas.flac
Pre-gap length : 00:02:71
Track gain : -5.13 dB
Peak : 0.955841
CRC32 hash (test run) : 3086D694
CRC32 hash : 3086D694
CRC32 hash (skip zero) : D2CB196A
AccurateRip signature : 6CEEFDC9
->Accurately ripped! (confidence 1)
Statistics
Read error : 0
Skipped (treated as error) : 0
Edge jitter error (maybe fixed) : 0
Atom jitter error (maybe fixed) : 0
Drift error (maybe fixed) : 0
Dropped bytes error (maybe fixed) : 0
Duplicated bytes error (maybe fixed) : 0
Inconsistency in error sectors : 0
Track 09
Filename : /Unsorted MP3/00 In Progress/Roundtrip - 2005 - Two Way Street/09 - Free Seven.flac
Pre-gap length : 00:03:66
Track gain : -5.34 dB
Peak : 0.956329
CRC32 hash (test run) : 5336C87C
CRC32 hash : 5336C87C
CRC32 hash (skip zero) : E96FD155
AccurateRip signature : 89BAB2A7
->Rip may not be accurate.
Statistics
Read error : 0
Skipped (treated as error) : 0
Edge jitter error (maybe fixed) : 0
Atom jitter error (maybe fixed) : 0
Drift error (maybe fixed) : 0
Dropped bytes error (maybe fixed) : 0
Duplicated bytes error (maybe fixed) : 0
Inconsistency in error sectors : 0
No errors occurred
End of status report
 
Содержание индексной карты (.CUE)
TITLE "Two Way Street"
PERFORMER "Roundtrip"
REM DATE "2005"
REM DISCID 6909C809
FILE "01 - Gibsy Love.wav" WAVE
TRACK 01 AUDIO
TITLE "Gibsy Love"
ISRC NOBZH0510010
INDEX 01 00:00:00
TRACK 02 AUDIO
TITLE "Jimmy"
ISRC NOBZH0510020
INDEX 00 06:49:67
FILE "02 - Jimmy.wav" WAVE
INDEX 01 00:00:00
TRACK 03 AUDIO
TITLE "Sweden"
ISRC NOBZH0510030
INDEX 00 05:15:10
FILE "03 - Sweden.wav" WAVE
INDEX 01 00:00:00
TRACK 04 AUDIO
TITLE "Free Two to Five"
ISRC NOBZH0510050
INDEX 00 05:52:15
FILE "04 - Free Two to Five.wav" WAVE
INDEX 01 00:00:00
TRACK 05 AUDIO
TITLE "P.B"
ISRC NOBZH0510050
INDEX 00 03:13:01
FILE "05 - P.B.wav" WAVE
INDEX 01 00:00:00
TRACK 06 AUDIO
TITLE "A.A"
ISRC NOBZH0510060
INDEX 00 05:52:35
FILE "06 - A.A.wav" WAVE
INDEX 01 00:00:00
TRACK 07 AUDIO
TITLE "Gushes From the Past"
ISRC NOBZH0510070
INDEX 00 06:22:12
FILE "07 - Gushes From the Past.wav" WAVE
INDEX 01 00:00:00
TRACK 08 AUDIO
TITLE "Texas"
ISRC NOBZH0510090
INDEX 00 04:32:42
FILE "08 - Texas.wav" WAVE
INDEX 01 00:00:00
TRACK 09 AUDIO
TITLE "Free Seven"
ISRC NOBZH0510090
INDEX 00 02:08:73
FILE "09 - Free Seven.wav" WAVE
INDEX 01 00:00:00
 
Лог проверки качества
AUDIOCHECKER v2.0 beta (build 457) - by Dester - opdester@freemail.hu
~~~~~~~~~~~~~~~~~~~~~~~~~~~~~~~~~~
-=== DO NOT EDIT THIS FILE! ===-
Path: ...\Roundtrip - 2005 - Two Way Street
1 -=- 01 - Gibsy Love.flac -=- CDDA (100%)
2 -=- 02 - Jimmy.flac -=- CDDA (100%)
3 -=- 03 - Sweden.flac -=- CDDA (100%)
4 -=- 04 - Free Two to Five.flac -=- CDDA (100%)
5 -=- 05 - P.B.flac -=- CDDA (100%)
6 -=- 06 - A.A.flac -=- CDDA (100%)
7 -=- 07 - Gushes From the Past.flac -=- CDDA (100%)
8 -=- 08 - Texas.flac -=- CDDA (100%)
9 -=- 09 - Free Seven.flac -=- CDDA (100%)
Summary 100,00% CDDA
262410036
 
Об альбоме (сборнике)
Two Way Street is the impressive and raucous debut by the youthful Scandinavian trio known as Roundtrip. Formerly called Mega Tsunami, the group changed its name after the recent disaster in Southeast Asia. These nine offerings are clever, rhythmically charged compositions, with Klaus Ellerhusen Holm's alto and baritone work clearly rooted in the exuberance of his main influences, Eric Dolphy and Sonny Simmons.
Holm's adventures, fueled by bassist Ole Morten Vågan and drummer Ole Thomas Kolberg, are surprisingly patient and intelligent considering the group's often voluminous, seemingly rampant approach to improvisation. Tunes like "Gibsy Love," "Sweden," "Texas," and "Free Seven" are, at first listen, works of madness—pure and rampant with energy. On subsequent sessions, though, the group's method comes to the fore, revealing intentions, wit, and structures where at first only wackiness was heard.
Intelligent and rebellious, somehow nerdy and sexy, Two Way Street is excellent proof that jazz and youth make wonderful bedfellows. And unlike the ambiguous output of recent "jazz" bands like the Bad Plus, Roundtrip delivers the goods without all that rock-pop junk.
 
Состав
Klaus Ellerhusen Holm - alto, baritone saxophone
Ole Morten Vågan - bass
Ole Thomas Kolberg - drums
По всем вопросам пишите личное сообщение пользователю M0p94ok.
15:07
154
Нет комментариев. Ваш будет первым!