Вы используете незарегистрированную версию компонента "Вкладки"!

Поиск

(Avant-Garde Jazz, Free Improvisation) [CD] Duo Nueva Finlandia (Eero Ojanen, Teemu Hauta-aho) - Short Stories - 2005, FLAC (tracks+.cue), lossless

(Avant-Garde Jazz, Free Improvisation) [CD] Duo Nueva Finlandia (Eero Ojanen, Teemu Hauta-aho) - Short Stories - 2005, FLAC (tracks+.cue), lossless
Треклист:
Duo Nueva Finlandia - Short Stories
Жанр: Avant-Garde Jazz, Free Improvisation
Носитель: CD
Страна-производитель диска (релиза): Finland
Год издания: 2005
Издатель (лейбл): TUM Records
Номер по каталогу: TUM CD 012
Страна исполнителя (группы): Finland
Аудиокодек: FLAC (*.flac)
Тип рипа: tracks+.cue
Битрейт аудио: lossless
Продолжительность: 61:27
Источник (релизер): what.cd (Negative_Creep)
Наличие сканов в содержимом раздачи: нет
Треклист:
01. Haloo - haloo! (05:20)
02. A Definitive Story (05:07)
03. An Ironic Story (04:15)
04. A Positive Story (04:04)
05. A Senseless Story (03:03)
06. No Story (05:14)
07. A Sad Story (05:27)
08. A Firefly Story (05:03)
09. Why? Why Not! (05:30)
10. A Double Story (04:37)
11. A Thunder Story (03:50)
12. A Damped Story (02:55)
13. A Sunday Story (03:49)
14. End of the Beginning (03:13)
 
Лог создания рипа
Exact Audio Copy V1.0 beta 2 from 29. April 2011
EAC extraction logfile from 9. June 2012, 11:43
Duo Nueva Finlandia / Short Stories
Used drive : TSSTcorpCDDVDW SH-S223L Adapter: 1 ID: 1
Read mode : Secure
Utilize accurate stream : Yes
Defeat audio cache : Yes
Make use of C2 pointers : No
Read offset correction : 6
Overread into Lead-In and Lead-Out : No
Fill up missing offset samples with silence : Yes
Delete leading and trailing silent blocks : No
Null samples used in CRC calculations : Yes
Used interface : Native Win32 interface for Win NT & 2000
Gap handling : Appended to previous track
Used output format : User Defined Encoder
Selected bitrate : 896 kBit/s
Quality : High
Add ID3 tag : No
Command line compressor : C:\Program Files (x86)\Exact Audio Copy\Flac\flac.exe
Additional command line options : -8 -V -T "ARTIST=%artist%" -T "TITLE=%title%" -T "ALBUM=%albumtitle%" -T "DATE=%year%" -T "TRACKNUMBER=%tracknr%" -T "GENRE=%genre%" -T "PERFORMER=%albuminterpret%" -T "COMPOSER=%composer%" %haslyrics%--tag-from-file=LYRIC
TOC of the extracted CD
Track | Start | Length | Start sector | End sector
---------------------------------------------------------
1 | 0:00.00 | 5:22.46 | 0 | 24195
2 | 5:22.46 | 5:07.37 | 24196 | 47257
3 | 10:30.08 | 4:18.58 | 47258 | 66665
4 | 14:48.66 | 4:07.68 | 66666 | 85258
5 | 18:56.59 | 3:07.27 | 85259 | 99310
6 | 22:04.11 | 5:17.47 | 99311 | 123132
7 | 27:21.58 | 5:30.36 | 123133 | 147918
8 | 32:52.19 | 5:06.12 | 147919 | 170880
9 | 37:58.31 | 5:34.46 | 170881 | 195976
10 | 43:33.02 | 4:39.24 | 195977 | 216925
11 | 48:12.26 | 3:54.21 | 216926 | 234496
12 | 52:06.47 | 2:59.04 | 234497 | 247925
13 | 55:05.51 | 3:52.09 | 247926 | 265334
14 | 58:57.60 | 3:13.35 | 265335 | 279844
Track 1
Filename M:\Music\What 5\Duo Nueva Finlandia - Short Stories (2005) [FLAC]\01 - Haloo – haloo!.wav
Pre-gap length 0:00:02.00
Peak level 97.7 %
Extraction speed 3.6 X
Track quality 100.0 %
Test CRC 5F265255
Copy CRC 5F265255
Accurately ripped (confidence 1) [DA36E92D] (AR v1)
Copy OK
Track 2
Filename M:\Music\What 5\Duo Nueva Finlandia - Short Stories (2005) [FLAC]\02 - A Definite Story.wav
Pre-gap length 0:00:03.57
Peak level 82.1 %
Extraction speed 4.0 X
Track quality 100.0 %
Test CRC E4A6499B
Copy CRC E4A6499B
Accurately ripped (confidence 1) [0CE82832] (AR v1)
Copy OK
Track 3
Filename M:\Music\What 5\Duo Nueva Finlandia - Short Stories (2005) [FLAC]\03 - An Ironic Story.wav
Pre-gap length 0:00:03.57
Peak level 95.5 %
Extraction speed 4.3 X
Track quality 100.0 %
Test CRC A7A11310
Copy CRC A7A11310
Accurately ripped (confidence 1) [F13AA3C9] (AR v1)
Copy OK
Track 4
Filename M:\Music\What 5\Duo Nueva Finlandia - Short Stories (2005) [FLAC]\04 - A Positive Story.wav
Pre-gap length 0:00:03.58
Peak level 97.6 %
Extraction speed 4.6 X
Track quality 100.0 %
Test CRC 7560C389
Copy CRC 7560C389
Accurately ripped (confidence 1) [C55DD5F6] (AR v1)
Copy OK
Track 5
Filename M:\Music\What 5\Duo Nueva Finlandia - Short Stories (2005) [FLAC]\05 - A Senseless Story.wav
Pre-gap length 0:00:03.57
Peak level 83.4 %
Extraction speed 4.5 X
Track quality 100.0 %
Test CRC DEC5E53D
Copy CRC DEC5E53D
Accurately ripped (confidence 1) [153D8EC1] (AR v1)
Copy OK
Track 6
Filename M:\Music\What 5\Duo Nueva Finlandia - Short Stories (2005) [FLAC]\06 - No Story.wav
Pre-gap length 0:00:03.60
Peak level 97.6 %
Extraction speed 5.3 X
Track quality 100.0 %
Test CRC 944B2D0C
Copy CRC 944B2D0C
Accurately ripped (confidence 1) [43765A14] (AR v1)
Copy OK
Track 7
Filename M:\Music\What 5\Duo Nueva Finlandia - Short Stories (2005) [FLAC]\07 - A Sad Story.wav
Pre-gap length 0:00:03.56
Peak level 95.4 %
Extraction speed 5.7 X
Track quality 100.0 %
Test CRC CF6537CB
Copy CRC CF6537CB
Accurately ripped (confidence 1) [E3D1A94D] (AR v1)
Copy OK
Track 8
Filename M:\Music\What 5\Duo Nueva Finlandia - Short Stories (2005) [FLAC]\08 - A Firefly Story.wav
Pre-gap length 0:00:03.60
Peak level 97.7 %
Extraction speed 4.3 X
Track quality 100.0 %
Test CRC 11FFF98B
Copy CRC 11FFF98B
Accurately ripped (confidence 1) [4880CBC1] (AR v1)
Copy OK
Track 9
Filename M:\Music\What 5\Duo Nueva Finlandia - Short Stories (2005) [FLAC]\09 - Why q Why Not!.wav
Pre-gap length 0:00:03.57
Peak level 97.7 %
Extraction speed 5.1 X
Track quality 99.9 %
Test CRC FBA54846
Copy CRC FBA54846
Accurately ripped (confidence 1) [8CC07047] (AR v1)
Copy OK
Track 10
Filename M:\Music\What 5\Duo Nueva Finlandia - Short Stories (2005) [FLAC]\10 - A Double Story.wav
Pre-gap length 0:00:03.56
Peak level 97.7 %
Extraction speed 6.3 X
Track quality 100.0 %
Test CRC B5D67773
Copy CRC B5D67773
Accurately ripped (confidence 1) [2927851B] (AR v1)
Copy OK
Track 11
Filename M:\Music\What 5\Duo Nueva Finlandia - Short Stories (2005) [FLAC]\11 - A Thunder Story.wav
Pre-gap length 0:00:03.57
Peak level 97.7 %
Extraction speed 6.5 X
Track quality 100.0 %
Test CRC 2BDC9B1C
Copy CRC 2BDC9B1C
Accurately ripped (confidence 1) [A629A017] (AR v1)
Copy OK
Track 12
Filename M:\Music\What 5\Duo Nueva Finlandia - Short Stories (2005) [FLAC]\12 - A Damped Story.wav
Pre-gap length 0:00:03.56
Peak level 97.7 %
Extraction speed 6.4 X
Track quality 100.0 %
Test CRC 2F511151
Copy CRC 2F511151
Accurately ripped (confidence 1) [3B7C5AE2] (AR v1)
Copy OK
Track 13
Filename M:\Music\What 5\Duo Nueva Finlandia - Short Stories (2005) [FLAC]\13 - A Sunday Story.wav
Pre-gap length 0:00:03.56
Peak level 97.7 %
Extraction speed 6.8 X
Track quality 100.0 %
Test CRC 7762C10D
Copy CRC 7762C10D
Accurately ripped (confidence 1) [9E77BBD1] (AR v1)
Copy OK
Track 14
Filename M:\Music\What 5\Duo Nueva Finlandia - Short Stories (2005) [FLAC]\14 - End of the Beginning.wav
Pre-gap length 0:00:03.57
Peak level 97.7 %
Extraction speed 6.7 X
Track quality 100.0 %
Test CRC E80DCD77
Copy CRC E80DCD77
Accurately ripped (confidence 1) [4CFB7FDD] (AR v1)
Copy OK
All tracks accurately ripped
No errors occurred
End of status report
==== Log checksum E95F1841D1513AABE6770043F37CA905C135B9B9E43C75D0A37AB45C930B0AD4 ====
 
Содержание индексной карты (.CUE)
REM GENRE Jazz
REM DATE 2005
REM DISCID C30E930E
REM COMMENT "ExactAudioCopy v1.0b2"
PERFORMER "Duo Nueva Finlandia"
TITLE "Short Stories"
FILE "01 - Haloo – haloo!.wav" WAVE
TRACK 01 AUDIO
TITLE "Haloo – haloo!"
PERFORMER "Duo Nueva Finlandia"
ISRC FITU90500026
INDEX 01 00:00:00
TRACK 02 AUDIO
TITLE "A Definite Story"
PERFORMER "Duo Nueva Finlandia"
ISRC FITU90500027
INDEX 00 05:19:03
FILE "02 - A Definite Story.wav" WAVE
INDEX 01 00:00:00
TRACK 03 AUDIO
TITLE "An Ironic Story"
PERFORMER "Duo Nueva Finlandia"
ISRC FITU90500028
INDEX 00 05:03:69
FILE "03 - An Ironic Story.wav" WAVE
INDEX 01 00:00:00
TRACK 04 AUDIO
TITLE "A Positive Story"
PERFORMER "Duo Nueva Finlandia"
ISRC FITU90500029
INDEX 00 04:15:14
FILE "04 - A Positive Story.wav" WAVE
INDEX 01 00:00:00
TRACK 05 AUDIO
TITLE "A Senseless Story"
PERFORMER "Duo Nueva Finlandia"
ISRC FITU90500030
INDEX 00 04:04:25
FILE "05 - A Senseless Story.wav" WAVE
INDEX 01 00:00:00
TRACK 06 AUDIO
TITLE "No Story"
PERFORMER "Duo Nueva Finlandia"
ISRC FITU90500031
INDEX 00 03:03:57
FILE "06 - No Story.wav" WAVE
INDEX 01 00:00:00
TRACK 07 AUDIO
TITLE "A Sad Story"
PERFORMER "Duo Nueva Finlandia"
ISRC FITU90500032
INDEX 00 05:14:05
FILE "07 - A Sad Story.wav" WAVE
INDEX 01 00:00:00
TRACK 08 AUDIO
TITLE "A Firefly Story"
PERFORMER "Duo Nueva Finlandia"
ISRC FITU90500033
INDEX 00 05:26:66
FILE "08 - A Firefly Story.wav" WAVE
INDEX 01 00:00:00
TRACK 09 AUDIO
TITLE "Why? Why Not!"
PERFORMER "Duo Nueva Finlandia"
ISRC FITU90500034
INDEX 00 05:02:44
FILE "09 - Why q Why Not!.wav" WAVE
INDEX 01 00:00:00
TRACK 10 AUDIO
TITLE "A Double Story"
PERFORMER "Duo Nueva Finlandia"
ISRC FITU90500035
INDEX 00 05:31:04
FILE "10 - A Double Story.wav" WAVE
INDEX 01 00:00:00
TRACK 11 AUDIO
TITLE "A Thunder Story"
PERFORMER "Duo Nueva Finlandia"
ISRC FITU90500036
INDEX 00 04:35:56
FILE "11 - A Thunder Story.wav" WAVE
INDEX 01 00:00:00
TRACK 12 AUDIO
TITLE "A Damped Story"
PERFORMER "Duo Nueva Finlandia"
ISRC FITU90500037
INDEX 00 03:50:54
FILE "12 - A Damped Story.wav" WAVE
INDEX 01 00:00:00
TRACK 13 AUDIO
TITLE "A Sunday Story"
PERFORMER "Duo Nueva Finlandia"
ISRC FITU90500038
INDEX 00 02:55:37
FILE "13 - A Sunday Story.wav" WAVE
INDEX 01 00:00:00
TRACK 14 AUDIO
TITLE "End of the Beginning"
PERFORMER "Duo Nueva Finlandia"
ISRC FITU90500039
INDEX 00 03:48:41
FILE "14 - End of the Beginning.wav" WAVE
INDEX 01 00:00:00
 
Лог проверки качества
AUDIOCHECKER v2.0 beta (build 457) - by Dester - opdester@freemail.hu
~~~~~~~~~~~~~~~~~~~~~~~~~~~~~~~~~~
-=== DO NOT EDIT THIS FILE! ===-
Path: ...\Duo Nueva Finlandia - Short Stories (2005) [FLAC]
01 -=- 01 - Haloo – haloo!.flac -=- CDDA (100%)
02 -=- 02 - A Definite Story.flac -=- CDDA (100%)
03 -=- 03 - An Ironic Story.flac -=- CDDA (100%)
04 -=- 04 - A Positive Story.flac -=- CDDA (100%)
05 -=- 05 - A Senseless Story.flac -=- CDDA (100%)
06 -=- 06 - No Story.flac -=- CDDA (100%)
07 -=- 07 - A Sad Story.flac -=- CDDA (100%)
08 -=- 08 - A Firefly Story.flac -=- CDDA (100%)
09 -=- 09 - Why q Why Not!.flac -=- CDDA (99%)
10 -=- 10 - A Double Story.flac -=- CDDA (100%)
11 -=- 11 - A Thunder Story.flac -=- CDDA (100%)
12 -=- 12 - A Damped Story.flac -=- CDDA (100%)
13 -=- 13 - A Sunday Story.flac -=- CDDA (100%)
14 -=- 14 - End of the Beginning.flac -=- CDDA (99%)
Summary 99,86% CDDA
90037764
 
Об исполнителе (группе)
Duo Nueva Finlandia equals pianist Eero Ojanen and bassist Teppo Hauta-aho, who have both represented the top of Finnish modern jazz since the early 1960s. After often playing together during the 1960s and 1970s, they went their separate ways for many years, but started again playing together first in Trio Nueva Finlandia (with saxophonist Seppo Paakkunainen being the third member) and more recently as a duo.
 
Об альбоме (сборнике)
Short Stories is the result of an impromptu session from June 1998. It is improvised music at its purest: no recording engineer, no written music, no preconceived notions of what the music is going to be. Just two musicians with their instruments, a recording device and two microphones ready to capture the magic.
 
Состав
Eero Ojanen - piano
Teemu Hauta-aho - bass
По всем вопросам пишите личное сообщение пользователю M0p94ok.
15:08
157
Нет комментариев. Ваш будет первым!