Вы используете незарегистрированную версию компонента "Вкладки"!

Поиск

(Avant-Garde Jazz, Contemporary Jazz) [CD] Big Veto (Christoph Erb, Achim Escher, Christian Weber, Julian Sartorius, Yves Reichmuth, Vincent Membrez) - 100Valli - 2009, FLAC (tracks+.cue), lossless

(Avant-Garde Jazz, Contemporary Jazz) [CD] Big Veto (Christoph Erb, Achim Escher, Christian Weber, Julian Sartorius, Yves Reichmuth, Vincent Membrez) - 100Valli - 2009, FLAC (tracks+.cue), lossless
Треклист:
Big Veto / 100Valli
Жанр: Avant-Garde Jazz, Contemporary Jazz
Носитель: CD
Страна-производитель диска (релиза): Switzerland
Год издания: 2009
Издатель (лейбл): Veto-Records
Номер по каталогу: 006
Аудиокодек: FLAC (*.flac)
Тип рипа: tracks+.cue
Битрейт аудио: lossless
Продолжительность: 37:33
Источник (релизер): cd
Наличие сканов в содержимом раздачи: нет
Треклист:
1. 1 (2:49)
2. 0 (5:15)
3. 0 (6:06)
4. V (4:02)
5. A (4:56)
6. L (2:53)
7. L (4:53)
8. I (6:36)
 
Лог создания рипа
Exact Audio Copy V1.0 beta 3 from 29. August 2011
EAC extraction logfile from 14. August 2015, 18:29
BigVeto / 100Valli
Used drive : ASUS DRW-24F1ST a Adapter: 0 ID: 0
Read mode : Secure
Utilize accurate stream : Yes
Defeat audio cache : Yes
Make use of C2 pointers : No
Read offset correction : 6
Overread into Lead-In and Lead-Out : No
Fill up missing offset samples with silence : Yes
Delete leading and trailing silent blocks : No
Null samples used in CRC calculations : Yes
Used interface : Native Win32 interface for Win NT & 2000
Gap handling : Appended to previous track
Used output format : User Defined Encoder
Selected bitrate : 320 kBit/s
Quality : High
Add ID3 tag : No
Command line compressor : D:\Programs\Exact Audio Copy\Flac\flac.exe
Additional command line options : -V -8 -T "Genre=%genre%" -T "Artist=%artist%" -T "Title=%title%" -T "Album=%albumtitle%" -T "Date=%year%" -T "Tracknumber=%tracknr%" -T "Comment=%comment%" %source%
TOC of the extracted CD
Track | Start | Length | Start sector | End sector
---------------------------------------------------------
1 | 0:00.00 | 2:49.13 | 0 | 12687
2 | 2:49.13 | 5:14.63 | 12688 | 36300
3 | 8:04.01 | 6:06.13 | 36301 | 63763
4 | 14:10.14 | 4:02.68 | 63764 | 81981
5 | 18:13.07 | 4:56.74 | 81982 | 104255
6 | 23:10.06 | 2:53.03 | 104256 | 117233
7 | 26:03.09 | 4:53.54 | 117234 | 139262
8 | 30:56.63 | 6:36.64 | 139263 | 169026
Track 1
Filename D:\EAC\01 1.wav
Pre-gap length 0:00:02.00
Peak level 73.2 %
Extraction speed 1.6 X
Track quality 100.0 %
Test CRC C4766329
Copy CRC C4766329
Copy OK
Track 2
Filename D:\EAC\02 0.wav
Peak level 96.4 %
Extraction speed 1.9 X
Track quality 100.0 %
Test CRC 0C5C1A44
Copy CRC 0C5C1A44
Copy OK
Track 3
Filename D:\EAC\03 0.wav
Peak level 92.6 %
Extraction speed 2.0 X
Track quality 99.9 %
Test CRC 7B46FC26
Copy CRC 7B46FC26
Copy OK
Track 4
Filename D:\EAC\04 V.wav
Peak level 92.7 %
Extraction speed 2.3 X
Track quality 100.0 %
Test CRC 66267E6D
Copy CRC 66267E6D
Copy OK
Track 5
Filename D:\EAC\05 A.wav
Peak level 92.9 %
Extraction speed 2.5 X
Track quality 100.0 %
Test CRC BC807C6B
Copy CRC BC807C6B
Copy OK
Track 6
Filename D:\EAC\06 L.wav
Peak level 96.6 %
Extraction speed 2.4 X
Track quality 100.0 %
Test CRC 2A78F15E
Copy CRC 2A78F15E
Copy OK
Track 7
Filename D:\EAC\07 L.wav
Peak level 96.6 %
Extraction speed 2.8 X
Track quality 100.0 %
Test CRC 42BE7CAC
Copy CRC 42BE7CAC
Copy OK
Track 8
Filename D:\EAC\08 I.wav
Peak level 93.0 %
Extraction speed 3.0 X
Track quality 100.0 %
Test CRC D0D2717F
Copy CRC D0D2717F
Copy OK
No errors occurred
End of status report
==== Log checksum 4BBF6EBEE5C723A8472DCB64DB5E5FAFA1A92ECC1D8A7C3ABF7BC15CA523EEC5 ====
 
Содержание индексной карты (.CUE)
REM GENRE Jazz
REM DATE 2009
REM DISCID 7108CD08
REM COMMENT "ExactAudioCopy v1.0b3"
PERFORMER "BigVeto"
TITLE "100Valli"
FILE "01 1.wav" WAVE
TRACK 01 AUDIO
TITLE "1"
PERFORMER "BigVeto"
ISRC CH6210700035
INDEX 01 00:00:00
FILE "02 0.wav" WAVE
TRACK 02 AUDIO
TITLE "0"
PERFORMER "BigVeto"
ISRC CH6210700036
INDEX 01 00:00:00
FILE "03 0.wav" WAVE
TRACK 03 AUDIO
TITLE "0"
PERFORMER "BigVeto"
ISRC CH6210700037
INDEX 01 00:00:00
FILE "04 V.wav" WAVE
TRACK 04 AUDIO
TITLE "V"
PERFORMER "BigVeto"
ISRC CH6210700038
INDEX 01 00:00:00
FILE "05 A.wav" WAVE
TRACK 05 AUDIO
TITLE "A"
PERFORMER "BigVeto"
ISRC CH6210700039
INDEX 01 00:00:00
FILE "06 L.wav" WAVE
TRACK 06 AUDIO
TITLE "L"
PERFORMER "BigVeto"
ISRC CH6210700040
INDEX 01 00:00:00
FILE "07 L.wav" WAVE
TRACK 07 AUDIO
TITLE "L"
PERFORMER "BigVeto"
ISRC CH6210700041
INDEX 01 00:00:00
FILE "08 I.wav" WAVE
TRACK 08 AUDIO
TITLE "I"
PERFORMER "BigVeto"
ISRC CH6210700042
INDEX 01 00:00:00
Доп. информация: Recorded Live October, 21/22, 2008 at Meridiani, Lucerne Switzerland
 
Состав
Alto Saxophone – Achim Escher
Bass Clarinet, Tenor Saxophone – Christoph Erb
Double Bass, Electric Bass – Christian Weber
Drums – Julian Sartorius
Guitar – Yves Reichmuth
Synthesizer – Vincent Membrez
По всем вопросам пишите личное сообщение пользователю M0p94ok.
15:09
161
Нет комментариев. Ваш будет первым!