Вы используете незарегистрированную версию компонента "Вкладки"!

Поиск

(Free Jazz) [CD] Benjamin Duboc & Alexandra Grimal - Le Retour d’Ulysse [Promenade] (2CDs) - 2015, FLAC (tracks+.cue), lossless

(Free Jazz) [CD] Benjamin Duboc & Alexandra Grimal - Le Retour d’Ulysse [Promenade] (2CDs) - 2015, FLAC (tracks+.cue), lossless
Треклист:
Benjamin Duboc & Alexandra Grimal / Le Retour d’Ulysse [Promenade] (2CDs)
Жанр: Free Jazz
Носитель: CD
Страна-производитель диска (релиза): France
Год издания: 2015
Издатель (лейбл): Improvising Beings
Номер по каталогу: ib32
Аудиокодек: FLAC (*.flac)
Тип рипа: tracks+.cue
Битрейт аудио: lossless
Продолжительность: 40:51 + 35:01
Источник (релизер): я
Наличие сканов в содержимом раздачи: да
Треклист:

Disc 1

1. Rencontre 7:52
2. L’Homme qui court 2:14
3. Empreintes 5:37
4. Amibes 9:25
5. La Forêt 10:39
6. La Danse des puces (avant la pluie) – After the Rain 5:04

Disc 2
1. Gaïa 7:33
2. Chemins 7:03
3. Entrelacés 7:06
4. Ithaque 4:48
5. Le Retour d’Ulysse 3:42
6. Isha 4:49
Music by Benjamin Duboc & Alexandra Grimal except « After the Rain » composed by John Coltrane.
Recorded at Ackenbush in Malakoff (France), July 29th, 30th and 31th, 2013.
Benjamin Duboc – Double Bass
Alexandra Grimal – Tenor and Soprano Saxophones
 
Лог создания рипа
 
Disc 1
Exact Audio Copy V1.0 beta 6 from 9. April 2015
EAC extraction logfile from 25. April 2015, 22:36
Benjamin Duboc & Alexandra Grimal / Le Retour d'Ulysse [Promenade] (disc 1)
Used drive : SlimtypeeNAU508 5 Adapter: 1 ID: 1
Read mode : Secure
Utilize accurate stream : Yes
Defeat audio cache : Yes
Make use of C2 pointers : No
Read offset correction : 6
Overread into Lead-In and Lead-Out : No
Fill up missing offset samples with silence : Yes
Delete leading and trailing silent blocks : No
Null samples used in CRC calculations : Yes
Used interface : Native Win32 interface for Win NT & 2000
Gap handling : Appended to previous track
Used output format : User Defined Encoder
Selected bitrate : 768 kBit/s
Quality : High
Add ID3 tag : No
Command line compressor : C:\Program Files (x86)\Exact Audio Copy\Flac\flac.exe
Additional command line options : -8 -V -T "ARTIST=%artist%" -T "TITLE=%title%" -T "ALBUM=%albumtitle%" -T "DATE=%year%" -T "TRACKNUMBER=%tracknr%" -T "TOTALTRACKS=%numtracks%" -T "GENRE=%genre%" -T "ALBUMARTIST=%albumartist%" -T "ALBUM ARTIST=%albumartist%" -T "COMMENT=EAC Secure Mode, Test & Copy, AccurateRip, FLAC -8" %source%
TOC of the extracted CD
Track | Start | Length | Start sector | End sector
---------------------------------------------------------
1 | 0:00.00 | 7:51.69 | 0 | 35393
2 | 7:51.69 | 2:14.30 | 35394 | 45473
3 | 10:06.24 | 5:37.15 | 45474 | 70763
4 | 15:43.39 | 9:24.54 | 70764 | 113117
5 | 25:08.18 | 10:38.49 | 113118 | 161016
6 | 35:46.67 | 5:04.11 | 161017 | 183827
Track 1
Filename C:\EAC rips\01 - Rencontre.wav
Pre-gap length 0:00:02.00
Peak level 56.5 %
Extraction speed 2.3 X
Track quality 100.0 %
Test CRC C438CD95
Copy CRC C438CD95
Track not present in AccurateRip database
Copy OK
Track 2
Filename C:\EAC rips\02 - L'Homme qui court.wav
Pre-gap length 0:00:02.00
Peak level 71.6 %
Extraction speed 2.1 X
Track quality 100.0 %
Test CRC 4E371BB7
Copy CRC 4E371BB7
Track not present in AccurateRip database
Copy OK
Track 3
Filename C:\EAC rips\03 - Empreintes.wav
Pre-gap length 0:00:02.00
Peak level 99.9 %
Extraction speed 2.7 X
Track quality 100.0 %
Test CRC F930CC95
Copy CRC F930CC95
Track not present in AccurateRip database
Copy OK
Track 4
Filename C:\EAC rips\04 - Amibes.wav
Pre-gap length 0:00:02.00
Peak level 93.7 %
Extraction speed 2.9 X
Track quality 99.9 %
Test CRC D4A01BBD
Copy CRC D4A01BBD
Track not present in AccurateRip database
Copy OK
Track 5
Filename C:\EAC rips\05 - La Forêt.wav
Pre-gap length 0:00:02.00
Peak level 100.0 %
Extraction speed 3.6 X
Track quality 100.0 %
Test CRC AB386CA7
Copy CRC AB386CA7
Track not present in AccurateRip database
Copy OK
Track 6
Filename C:\EAC rips\06 - La Danse des puces (avant la pluie) - After the Rain.wav
Pre-gap length 0:00:02.00
Peak level 99.1 %
Extraction speed 3.1 X
Track quality 99.9 %
Test CRC D4DECD12
Copy CRC D4DECD12
Track not present in AccurateRip database
Copy OK
None of the tracks are present in the AccurateRip database
No errors occurred
End of status report
---- CUETools DB Plugin V2.1.6
[CTDB TOCID: BHHUSb0y8OBsk_ZkGRUfeDfF4f8-] found
Submit result: BHHUSb0y8OBsk_ZkGRUfeDfF4f8- has been confirmed
Track | CTDB Status
1 | (1/1) Accurately ripped
2 | (1/1) Accurately ripped
3 | (1/1) Accurately ripped
4 | (1/1) Accurately ripped
5 | (1/1) Accurately ripped
6 | (1/1) Accurately ripped
==== Log checksum 77E33D4A686096DF4F340C6D0E5181DDAC1BE63775FAD7DFDACAB321FD2EED0C ====
 
Disc 2
Exact Audio Copy V1.0 beta 6 from 9. April 2015
EAC extraction logfile from 25. April 2015, 23:31
Benjamin Duboc & Alexandra Grimal / Le Retour d'Ulysse [Promenade] (disc 2)
Used drive : SlimtypeeNAU508 5 Adapter: 1 ID: 1
Read mode : Secure
Utilize accurate stream : Yes
Defeat audio cache : Yes
Make use of C2 pointers : No
Read offset correction : 6
Overread into Lead-In and Lead-Out : No
Fill up missing offset samples with silence : Yes
Delete leading and trailing silent blocks : No
Null samples used in CRC calculations : Yes
Used interface : Native Win32 interface for Win NT & 2000
Gap handling : Appended to previous track
Used output format : User Defined Encoder
Selected bitrate : 768 kBit/s
Quality : High
Add ID3 tag : No
Command line compressor : C:\Program Files (x86)\Exact Audio Copy\Flac\flac.exe
Additional command line options : -8 -V -T "ARTIST=%artist%" -T "TITLE=%title%" -T "ALBUM=%albumtitle%" -T "DATE=%year%" -T "TRACKNUMBER=%tracknr%" -T "TOTALTRACKS=%numtracks%" -T "GENRE=%genre%" -T "ALBUMARTIST=%albumartist%" -T "ALBUM ARTIST=%albumartist%" -T "COMMENT=EAC Secure Mode, Test & Copy, AccurateRip, FLAC -8" %source%
TOC of the extracted CD
Track | Start | Length | Start sector | End sector
---------------------------------------------------------
1 | 0:00.00 | 7:33.00 | 0 | 33974
2 | 7:33.00 | 7:03.13 | 33975 | 65712
3 | 14:36.13 | 7:05.70 | 65713 | 97657
4 | 21:42.08 | 4:47.47 | 97658 | 119229
5 | 26:29.55 | 3:42.11 | 119230 | 135890
6 | 30:11.66 | 4:49.36 | 135891 | 157601
Track 1
Filename C:\EAC rips\01 - Gaïa.wav
Pre-gap length 0:00:02.00
Peak level 71.6 %
Extraction speed 1.1 X
Track quality 100.0 %
Test CRC 8193F73C
Copy CRC 8193F73C
Track not present in AccurateRip database
Copy OK
Track 2
Filename C:\EAC rips\02 - Chemins.wav
Pre-gap length 0:00:02.00
Peak level 96.9 %
Extraction speed 1.4 X
Track quality 100.0 %
Test CRC 7543ADB4
Copy CRC 7543ADB4
Track not present in AccurateRip database
Copy OK
Track 3
Filename C:\EAC rips\03 - Entrelacés.wav
Pre-gap length 0:00:02.00
Peak level 100.0 %
Extraction speed 1.4 X
Track quality 99.9 %
Test CRC 5A6803C4
Copy CRC 5A6803C4
Track not present in AccurateRip database
Copy OK
Track 4
Filename C:\EAC rips\04 - Ithaque.wav
Pre-gap length 0:00:02.00
Peak level 99.9 %
Extraction speed 1.6 X
Track quality 100.0 %
Test CRC 0675AFE9
Copy CRC 0675AFE9
Track not present in AccurateRip database
Copy OK
Track 5
Filename C:\EAC rips\05 - Le Retour d'Ulysse.wav
Pre-gap length 0:00:02.00
Peak level 77.9 %
Extraction speed 1.6 X
Track quality 100.0 %
Test CRC F54D42EE
Copy CRC F54D42EE
Track not present in AccurateRip database
Copy OK
Track 6
Filename C:\EAC rips\06 - Isha.wav
Pre-gap length 0:00:02.00
Peak level 95.3 %
Extraction speed 1.5 X
Track quality 99.9 %
Test CRC 9E2EBA01
Copy CRC 9E2EBA01
Track not present in AccurateRip database
Copy OK
None of the tracks are present in the AccurateRip database
No errors occurred
End of status report
---- CUETools DB Plugin V2.1.6
[CTDB TOCID: E21sYhQ0fL_1rzb1HuFq0vzlk2A-] found
Submit result: E21sYhQ0fL_1rzb1HuFq0vzlk2A- has been confirmed
Track | CTDB Status
1 | (1/1) Accurately ripped
2 | (1/1) Accurately ripped
3 | (1/1) Accurately ripped
4 | (1/1) Accurately ripped
5 | (1/1) Accurately ripped
6 | (1/1) Accurately ripped
==== Log checksum 87BC8CA5586601F44BD024B569EFA5A5DF9DF403B707511DFE213CB68938834A ====
 
Содержание индексной карты (.CUE)
 
Disc 1
REM GENRE "Improvising Beings ib32"
REM DATE 2015
REM DISCID 46099306
REM COMMENT "ExactAudioCopy v1.0b6"
PERFORMER "Benjamin Duboc & Alexandra Grimal"
TITLE "Le Retour d'Ulysse [Promenade] (disc 1)"
FILE "01 - Rencontre.wav" WAVE
TRACK 01 AUDIO
TITLE "Rencontre"
PERFORMER "Benjamin Duboc & Alexandra Grimal"
ISRC FR9W11321604
INDEX 01 00:00:00
TRACK 02 AUDIO
TITLE "L'Homme qui court"
PERFORMER "Benjamin Duboc & Alexandra Grimal"
ISRC FR9W11321605
INDEX 00 07:49:69
FILE "02 - L'Homme qui court.wav" WAVE
INDEX 01 00:00:00
TRACK 03 AUDIO
TITLE "Empreintes"
PERFORMER "Benjamin Duboc & Alexandra Grimal"
ISRC FR9W11321606
INDEX 00 02:12:30
FILE "03 - Empreintes.wav" WAVE
INDEX 01 00:00:00
TRACK 04 AUDIO
TITLE "Amibes"
PERFORMER "Benjamin Duboc & Alexandra Grimal"
ISRC FR9W11321607
INDEX 00 05:35:15
FILE "04 - Amibes.wav" WAVE
INDEX 01 00:00:00
TRACK 05 AUDIO
TITLE "La Forêt"
PERFORMER "Benjamin Duboc & Alexandra Grimal"
ISRC FR9W11321608
INDEX 00 09:22:54
FILE "05 - La Forêt.wav" WAVE
INDEX 01 00:00:00
TRACK 06 AUDIO
TITLE "La Danse des puces (avant la pluie) - After the Rain"
PERFORMER "Benjamin Duboc & Alexandra Grimal"
ISRC FR9W11321609
INDEX 00 10:36:49
FILE "06 - La Danse des puces (avant la pluie) - After the Rain.wav" WAVE
INDEX 01 00:00:00
 
Disc 2
REM GENRE "Improvising Beings ib32"
REM DATE 2015
REM DISCID 4C083506
REM COMMENT "ExactAudioCopy v1.0b6"
PERFORMER "Benjamin Duboc & Alexandra Grimal"
TITLE "Le Retour d'Ulysse [Promenade] (disc 2)"
FILE "01 - Gaïa.wav" WAVE
TRACK 01 AUDIO
TITLE "Gaïa"
PERFORMER "Benjamin Duboc & Alexandra Grimal"
ISRC FR9W11321610
INDEX 01 00:00:00
TRACK 02 AUDIO
TITLE "Chemins"
PERFORMER "Benjamin Duboc & Alexandra Grimal"
ISRC FR9W11321611
INDEX 00 07:31:00
FILE "02 - Chemins.wav" WAVE
INDEX 01 00:00:00
TRACK 03 AUDIO
TITLE "Entrelacés"
PERFORMER "Benjamin Duboc & Alexandra Grimal"
ISRC FR9W11321612
INDEX 00 07:01:13
FILE "03 - Entrelacés.wav" WAVE
INDEX 01 00:00:00
TRACK 04 AUDIO
TITLE "Ithaque"
PERFORMER "Benjamin Duboc & Alexandra Grimal"
ISRC FR9W11321613
INDEX 00 07:03:70
FILE "04 - Ithaque.wav" WAVE
INDEX 01 00:00:00
TRACK 05 AUDIO
TITLE "Le Retour d'Ulysse"
PERFORMER "Benjamin Duboc & Alexandra Grimal"
ISRC FR9W11321614
INDEX 00 04:45:47
FILE "05 - Le Retour d'Ulysse.wav" WAVE
INDEX 01 00:00:00
TRACK 06 AUDIO
TITLE "Isha"
PERFORMER "Benjamin Duboc & Alexandra Grimal"
ISRC FR9W11321615
INDEX 00 03:40:11
FILE "06 - Isha.wav" WAVE
INDEX 01 00:00:00
По всем вопросам пишите личное сообщение пользователю M0p94ok.
15:10
227
Нет комментариев. Ваш будет первым!