Поиск

(Free Improvisation) Derek Bailey with Julian Kytasty, Roger Turner, Alan Wilkinson - Duos London 2001 - 2001, FLAC (tracks+.cue) lossless

Треклист:
Derek Bailey with Julian Kytasty / Roger Turner / Alan Wilkinson / Duos London 2001
Жанр: Free Improvisation
Страна-производитель диска: UK
Год издания диска: 2001
Издатель (лейбл): Incus Records
Номер по каталогу: CD 51
Аудио кодек: FLAC (*.flac)
Тип рипа: tracks+.cue
Битрейт аудио: lossless
Продолжительность: 58:47
Источник (релизер): what.cd (closer71)
Наличие сканов в содержимом раздачи: нет
Треклист:
01 With Alan Wilkinson 30:19
Baritone Saxophone, Voice - Alan Wilkinson
Electric Guitar - Derek Bailey
02 With Roger Turner 14:17
Electric Guitar - Derek Bailey
Percussion - Roger Turner
03 With Julian Kytasty 14:00
Acoustic Guitar - Derek Bailey
Bandura, Flute - Julian Kytasty
 
Лог создания рипа
Exact Audio Copy V0.99 prebeta 4 from 23. January 2008
EAC extraction logfile from 25. November 2010, 4:10
Derek Bailey/Julian Kytasty/Roger Turner/Alan Wilkinson / Duos, London 2001
Used drive : PHILIPS DVDR1648P1 Adapter: 1 ID: 0
Read mode : Secure
Utilize accurate stream : Yes
Defeat audio cache : Yes
Make use of C2 pointers : No
Read offset correction : 618
Overread into Lead-In and Lead-Out : No
Fill up missing offset samples with silence : Yes
Delete leading and trailing silent blocks : No
Null samples used in CRC calculations : Yes
Used interface : Installed external ASPI interface
Gap handling : Appended to previous track
Used output format : User Defined Encoder
Selected bitrate : 1024 kBit/s
Quality : High
Add ID3 tag : No
Command line compressor : C:\Programmi\Exact Audio Copy\Flac\flac.exe
Additional command line options : -8 -V -T "artist=%a" -T "title=%t" -T "album=%g" -T "date=%y" -T "tracknumber=%n" -T "genre=%m" %s
TOC of the extracted CD
Track | Start | Length | Start sector | End sector
---------------------------------------------------------
1 | 0:00.00 | 30:25.24 | 0 | 136898
2 | 30:25.24 | 14:20.72 | 136899 | 201470
3 | 44:46.21 | 14:00.40 | 201471 | 264510
Track 1
Filename G:\Ripworks\Freestyle\Derek Bailey,Julian Kytasty,Roger Turner,Alan Wilkinson\Duos, London 2001\01-with Alan Wilkinson.wav
Pre-gap length 0:00:02.00
Peak level 97.7 %
Track quality 100.0 %
Test CRC 476EF916
Copy CRC 476EF916
Accurately ripped (confidence 1) [2EE330DB]
Copy OK
Track 2
Filename G:\Ripworks\Freestyle\Derek Bailey,Julian Kytasty,Roger Turner,Alan Wilkinson\Duos, London 2001\02-with Roger Turner.wav
Pre-gap length 0:00:03.32
Peak level 97.7 %
Track quality 100.0 %
Test CRC 3B1DFE7A
Copy CRC 3B1DFE7A
Accurately ripped (confidence 1) [91C047E8]
Copy OK
Track 3
Filename G:\Ripworks\Freestyle\Derek Bailey,Julian Kytasty,Roger Turner,Alan Wilkinson\Duos, London 2001\03-with Julian Kytasty.wav
Pre-gap length 0:00:03.11
Peak level 100.0 %
Track quality 100.0 %
Test CRC 5CD28526
Copy CRC 5CD28526
Accurately ripped (confidence 1) [524FA31E]
Copy OK
All tracks accurately ripped
No errors occurred
End of status report
 
Содержание индексной карты (.CUE)
REM GENRE Freestyle
REM DISCID 2C0DC603
REM COMMENT "ExactAudioCopy v0.99pb4"
PERFORMER "Derek Bailey/Julian Kytasty/Roger Turner/Alan Wilkinson"
TITLE "Duos, London 2001"
FILE "01-with Alan Wilkinson.wav" WAVE
TRACK 01 AUDIO
TITLE "with Alan Wilkinson"
PERFORMER "Derek Bailey/Julian Kytasty/Roger Turner/Alan Wilkinson"
INDEX 01 00:00:00
TRACK 02 AUDIO
TITLE "with Roger Turner"
PERFORMER "Derek Bailey/Julian Kytasty/Roger Turner/Alan Wilkinson"
FLAGS DCP
INDEX 00 30:21:67
FILE "02-with Roger Turner.wav" WAVE
INDEX 01 00:00:00
TRACK 03 AUDIO
TITLE "with Julian Kytasty"
PERFORMER "Derek Bailey/Julian Kytasty/Roger Turner/Alan Wilkinson"
FLAGS DCP
INDEX 00 14:17:61
FILE "03-with Julian Kytasty.wav" WAVE
INDEX 01 00:00:00
Доп. информация:
Recording Dates:
Track 1: 23 March 2001 at Flim Flam Club, London
Track 2: 2 March 2001 at the October Gallery, London
Track 3: 5 October 2001 at St Michael and All Angels Church, London
По всем вопросам пишите личное сообщение пользователю M0p94ok.
04:55
196
Нет комментариев. Ваш будет первым!