Вы используете незарегистрированную версию компонента "Вкладки"!

Поиск

(Free Improvisation, Experimental) Koboku Senju (Toshimaru Nakamura, Tetuzi Akiyama, Espen Reinertsen, Eivind Lonning, Martin Taxt) - Selektiv Hogst - 2010, FLAC (tracks) lossless

Треклист:
Koboku Senju / Selektiv Hogst
Жанр: Free Improvisation, Experimental
Страна-производитель диска: Norway
Год издания диска: 2010
Издатель (лейбл): Sofa
Номер по каталогу: SOFA530
Аудио кодек: FLAC (*.flac)
Тип рипа: tracks
Битрейт аудио: lossless
Продолжительность: 45:20
Источник (релизер): what.cd (4n4n4s)
Наличие сканов в содержимом раздачи: нет
Треклист:
01 Nedvekst (om å vokse nedover) (7:51)
02 Fanget under giftig bark (6:54)
03 På leting etter skygge (4:03)
04 Vintersøvn (7:50)
05 Dyr som blir spist av andre dyr (1:51)
06 Dypdrenering (8:26)
07 Alt starter med regn (8:24)
 
Лог создания рипа
Exact Audio Copy V0.99 prebeta 5 from 4. May 2009
EAC extraction logfile from 22. June 2010, 2:25
Koboku Senjы / Selektiv Hogst
Used drive : TSSTcorpDVD+-RW TS-L633B Adapter: 0 ID: 1
Read mode : Secure
Utilize accurate stream : Yes
Defeat audio cache : No
Make use of C2 pointers : No
Read offset correction : 6
Overread into Lead-In and Lead-Out : No
Fill up missing offset samples with silence : Yes
Delete leading and trailing silent blocks : No
Null samples used in CRC calculations : No
Used interface : Native Win32 interface for Win NT & 2000
Gap handling : Not detected, thus appended to previous track
Used output format : User Defined Encoder
Selected bitrate : 768 kBit/s
Quality : High
Add ID3 tag : No
Command line compressor : C:\Program Files\Exact Audio Copy\FLAC\FLAC.EXE
Additional command line options : --best -T "ARTIST=%a" -T "TITLE=%t" -T "ALBUM=%g" -T "DATE=%y" -T "TRACKNUMBER=%n" -T "GENRE=%m" %s
TOC of the extracted CD
Track | Start | Length | Start sector | End sector
---------------------------------------------------------
1 | 0:00.00 | 7:51.29 | 0 | 35353
2 | 7:51.29 | 6:53.61 | 35354 | 66389
3 | 14:45.15 | 4:03.09 | 66390 | 84623
4 | 18:48.24 | 7:49.56 | 84624 | 119854
5 | 26:38.05 | 1:51.22 | 119855 | 128201
6 | 28:29.27 | 8:26.25 | 128202 | 166176
7 | 36:55.52 | 8:24.26 | 166177 | 204002
Track 1
Filename C:\Users\volvotech\Desktop\Drone\Koboku Senjы\Selektiv Hogst\01-Nedvekst (om е vokse nedover).wav
Peak level 98.7 %
Track quality 100.0 %
Copy CRC 2EAAA410
Track not present in AccurateRip database
Copy OK
Track 2
Filename C:\Users\volvotech\Desktop\Drone\Koboku Senjы\Selektiv Hogst\02-Fanget under giftig bark.wav
Peak level 98.7 %
Track quality 100.0 %
Copy CRC 65BC5DBE
Track not present in AccurateRip database
Copy OK
Track 3
Filename C:\Users\volvotech\Desktop\Drone\Koboku Senjы\Selektiv Hogst\03-Pе leting etter skygge.wav
Peak level 98.7 %
Track quality 100.0 %
Copy CRC 78B23FB7
Track not present in AccurateRip database
Copy OK
Track 4
Filename C:\Users\volvotech\Desktop\Drone\Koboku Senjы\Selektiv Hogst\04-Vintersшvn.wav
Peak level 98.7 %
Track quality 100.0 %
Copy CRC 2891480C
Track not present in AccurateRip database
Copy OK
Track 5
Filename C:\Users\volvotech\Desktop\Drone\Koboku Senjы\Selektiv Hogst\05-Dyr som blir spist av andre dyr.wav
Peak level 98.7 %
Track quality 100.0 %
Copy CRC 7787C6C5
Track not present in AccurateRip database
Copy OK
Track 6
Filename C:\Users\volvotech\Desktop\Drone\Koboku Senjы\Selektiv Hogst\06-Dypdrenering.wav
Peak level 98.7 %
Track quality 100.0 %
Copy CRC 84F5BB33
Track not present in AccurateRip database
Copy OK
Track 7
Filename C:\Users\volvotech\Desktop\Drone\Koboku Senjы\Selektiv Hogst\07-Alt starter med regn.wav
Peak level 98.7 %
Track quality 100.0 %
Copy CRC FC64D771
Track not present in AccurateRip database
Copy OK
None of the tracks are present in the AccurateRip database
No errors occurred
End of status report
 
Об альбоме (сборнике)
With a name meaning Selection of dead trees, no one's expecting this Norwegian/Japanese quintet to be making toe-tapping dance tunes. But the name does perfectly describe their stark and at times ominously beautiful debut album. The improvisations are centered around the tense dynamic between Tetuzi Akiyama's relaxed, minimal, Country-tinged acoustic guitar and the unsettling electronic sounds generated by Toshimaru Nakamura at the no-input mixing board. The controlled and manipulated feedback isn't always a particulary comfortable sound, but when it settles into a cikada hum, with lazy guitar twangs, faint saxophone harmonics and sparing daubs of trumpet and tuba, you could almost be eavesdropping on a soporific, late-night, back-porch jam. - Daniel Spicer (The Wire)
 
Состав
Electronics [No-input Mixing Board] - Toshimaru Nakamura
Flute, Saxophone - Espen Reinertsen
Guitar - Tetuzi Akiyama
Trumpet - Eivind Lonning
Tuba - Martin Taxt
По всем вопросам пишите личное сообщение пользователю M0p94ok.
05:55
177
Нет комментариев. Ваш будет первым!