Поиск

(Free Improvisation, Contemporary Jazz) [CD] Theo Jorgensmann, Karoly Binder - In Concert - 2010, FLAC (image+.cue), lossless

(Free Improvisation, Contemporary Jazz) [CD] Theo Jorgensmann, Karoly Binder - In Concert - 2010, FLAC (image+.cue), lossless
Theo Jörgensmann, Károly Binder / In Concert
Жанр: Free Improvisation, Contemporary Jazz
Носитель: CD
Страна-производитель диска: Hungary
Год издания: 2010
Издатель (лейбл): Binder Music Manufactory
Номер по каталогу: BMM 2010-8037
Аудиокодек: FLAC (*.flac)
Тип рипа: image+.cue
Битрейт аудио: lossless
Продолжительность: 63:42
Источник (релизер): CD
Наличие сканов в содержимом раздачи: нет
Треклист:
1 On Cracket Stars 15:39
2 Dance Music 14:13
3 Zeitabgrenzung 13:14
4 June Concentrat 11:35
5 Ballet Hall 9:01
 
Лог создания рипа
Exact Audio Copy V1.0 beta 2 from 29. April 2011
EAC extraction logfile from 8. May 2014, 15:31
Theo Jorgensmann, Karoly Binder / In Concert
Used drive : Optiarc DVD RW AD-7170A Adapter: 0 ID: 0
Read mode : Secure
Utilize accurate stream : Yes
Defeat audio cache : Yes
Make use of C2 pointers : No
Read offset correction : 48
Overread into Lead-In and Lead-Out : No
Fill up missing offset samples with silence : Yes
Delete leading and trailing silent blocks : No
Null samples used in CRC calculations : Yes
Used interface : Native Win32 interface for Win NT & 2000
Used output format : User Defined Encoder
Selected bitrate : 320 kBit/s
Quality : High
Add ID3 tag : No
Command line compressor : C:\Program Files\Exact Audio Copy\Flac\flac.exe
Additional command line options : -V -8 -T "Date=%year%" -T "Genre=%genre%" %source%
TOC of the extracted CD
Track | Start | Length | Start sector | End sector
---------------------------------------------------------
1 | 0:00.00 | 15:39.00 | 0 | 70424
2 | 15:39.00 | 14:13.00 | 70425 | 134399
3 | 29:52.00 | 13:14.00 | 134400 | 193949
4 | 43:06.00 | 11:35.00 | 193950 | 246074
5 | 54:41.00 | 9:01.00 | 246075 | 286649
Range status and errors
Selected range
Filename K:\ЕАС\Theo Jorgensmann, Karoly Binder - In Concert.wav
Peak level 89.7 %
Extraction speed 5.3 X
Range quality 99.9 %
Test CRC 5450F372
Copy CRC 5450F372
Copy OK
No errors occurred
AccurateRip summary
Track 1 not present in database
Track 2 not present in database
Track 3 not present in database
Track 4 not present in database
Track 5 not present in database
None of the tracks are present in the AccurateRip database
End of status report
==== Log checksum 0CFA7ED375A9526612A45136C7E47053ED708E3B091F80EFC144073AC459866B ====
 
Содержание индексной карты (.CUE)
REM GENRE Jazz
REM DATE 2010
REM DISCID 4C0EEE05
REM COMMENT "ExactAudioCopy v1.0b2"
PERFORMER "Theo Jorgensmann, Karoly Binder"
TITLE "In Concert "
FILE "Theo Jorgensmann, Karoly Binder - In Concert.flac" WAVE
TRACK 01 AUDIO
TITLE "On Cracket Stars"
PERFORMER "Theo Jorgensmann, Karoly Binder"
ISRC 000000000000
INDEX 01 00:00:00
TRACK 02 AUDIO
TITLE "Dance Music"
PERFORMER "Theo Jorgensmann, Karoly Binder"
ISRC 000000000000
INDEX 01 15:39:00
TRACK 03 AUDIO
TITLE "Zeitabgrenzung"
PERFORMER "Theo Jorgensmann, Karoly Binder"
ISRC 000000000000
INDEX 01 29:52:00
TRACK 04 AUDIO
TITLE "June Concentrat"
PERFORMER "Theo Jorgensmann, Karoly Binder"
ISRC 000000000000
INDEX 01 43:06:00
TRACK 05 AUDIO
TITLE "Ballet Hall"
PERFORMER "Theo Jorgensmann, Karoly Binder"
ISRC 000000000000
INDEX 01 54:41:00
Доп. информация: Recorded At – NOM Festival Moers, 1990
 
Состав
Clarinet – Theo Jörgensmann
Composed By – Károly Binder (tracks: 1, 2, 4, 5), Theo Jörgensmann (tracks: 3)
Grand Piano – Károly Binder
01:49
286
Нет комментариев. Ваш будет первым!