Вы используете незарегистрированную версию компонента "Вкладки"!

Поиск

(Modern Creative) [CD] Phronesis - Life To Everything - 2014, FLAC (tracks+.cue), lossless

(Modern Creative) [CD] Phronesis - Life To Everything - 2014, FLAC (tracks+.cue), lossless
Треклист:
Phronesis / Life To Everything
Жанр: Modern Creative
Носитель: CD
Страна-производитель диска: UK
Год издания: 2014
Издатель (лейбл): Edition Records
Номер по каталогу: EDN1050
Страна: UK/ Denmark
Аудиокодек: FLAC (*.flac)
Тип рипа: tracks+.cue
Битрейт аудио: lossless
Продолжительность: 1:03:00
Источник (релизер): what.cd
Наличие сканов в содержимом раздачи: да
Треклист:
01. Urban Control (Anton Eger)
02. Phraternal (Ivo Neame)
03. Behind Bars (Jasper Høiby)
04. Song for Lost Nomads (Ivo Neame)
05. Wings 2 the Mind (Jasper Høiby)
06. Nine Lives (Jasper Høiby)
07. Deep Space Dance (Ivo Neame)
08. Herne Hill (Anton Eger)
09. Dr Black (Anton Eger)
http://www.phronesismusic.com/
 
Лог создания рипа
Exact Audio Copy V1.0 beta 3 from 29. August 2011
EAC extraction logfile from 6. May 2014, 15:17
Phronesis / Life To Everything
Used drive : ATAPI iHAS124 B Adapter: 2 ID: 1
Read mode : Secure
Utilize accurate stream : Yes
Defeat audio cache : Yes
Make use of C2 pointers : No
Read offset correction : 6
Overread into Lead-In and Lead-Out : No
Fill up missing offset samples with silence : Yes
Delete leading and trailing silent blocks : No
Null samples used in CRC calculations : Yes
Used interface : Native Win32 interface for Win NT & 2000
Gap handling : Appended to previous track
Used output format : User Defined Encoder
Selected bitrate : 1024 kBit/s
Quality : High
Add ID3 tag : No
Command line compressor : C:\Program Files (x86)\FLAC Frontend\tools\flac.exe
Additional command line options : -8 -V -T "ARTIST=%artist%" -T "TITLE=%title%" -T "ALBUM=%albumtitle%" -T "DATE=%year%" -T "TRACKNUMBER=%tracknr%" -T "TOTALTRACKS=%numtracks%" -T "GENRE=%genre%" -T "ALBUMARTIST=%albumartist%" -T "ALBUM ARTIST=%albumartist%" -T "COMMENT=EAC Secure Mode, Test & Copy, AccurateRip, FLAC -8" %source%
TOC of the extracted CD
Track | Start | Length | Start sector | End sector
---------------------------------------------------------
1 | 0:00.00 | 7:52.70 | 0 | 35469
2 | 7:52.70 | 6:33.23 | 35470 | 64967
3 | 14:26.18 | 9:00.40 | 64968 | 105507
4 | 23:26.58 | 7:01.35 | 105508 | 137117
5 | 30:28.18 | 8:40.53 | 137118 | 176170
6 | 39:08.71 | 6:34.51 | 176171 | 205771
7 | 45:43.47 | 5:02.30 | 205772 | 228451
8 | 50:46.02 | 5:02.16 | 228452 | 251117
9 | 55:48.18 | 7:37.59 | 251118 | 285451
Track 1
Filename C:\Phronesis - Life To Everything (2014) {Edition Records}\01 - Urban Control.wav
Pre-gap length 0:00:02.00
Peak level 96.5 %
Extraction speed 4.1 X
Track quality 100.0 %
Test CRC FD4EF9FD
Copy CRC FD4EF9FD
Accurately ripped (confidence 2) [E236DB2F] (AR v2)
Copy OK
Track 2
Filename C:\Phronesis - Life To Everything (2014) {Edition Records}\02 - Phraternal.wav
Peak level 96.5 %
Extraction speed 4.7 X
Track quality 100.0 %
Test CRC 48FD429A
Copy CRC 48FD429A
Accurately ripped (confidence 2) [FB584AA7] (AR v2)
Copy OK
Track 3
Filename C:\Phronesis - Life To Everything (2014) {Edition Records}\03 - Behind Bars.wav
Peak level 96.5 %
Extraction speed 5.5 X
Track quality 100.0 %
Test CRC 21B2A085
Copy CRC 21B2A085
Accurately ripped (confidence 2) [962A9CB4] (AR v2)
Copy OK
Track 4
Filename C:\Phronesis - Life To Everything (2014) {Edition Records}\04 - Song For Lost Nomads.wav
Peak level 96.5 %
Extraction speed 6.0 X
Track quality 100.0 %
Test CRC AF24F572
Copy CRC AF24F572
Accurately ripped (confidence 2) [8FB19D2C] (AR v2)
Copy OK
Track 5
Filename C:\Phronesis - Life To Everything (2014) {Edition Records}\05 - Wings 2 The Mind.wav
Peak level 96.5 %
Extraction speed 6.6 X
Track quality 100.0 %
Test CRC EF3D5F58
Copy CRC EF3D5F58
Accurately ripped (confidence 2) [C40091E7] (AR v2)
Copy OK
Track 6
Filename C:\Phronesis - Life To Everything (2014) {Edition Records}\06 - Nine Lives.wav
Peak level 96.5 %
Extraction speed 6.9 X
Track quality 100.0 %
Test CRC 88EEDD03
Copy CRC 88EEDD03
Accurately ripped (confidence 2) [03068F61] (AR v2)
Copy OK
Track 7
Filename C:\Phronesis - Life To Everything (2014) {Edition Records}\07 - Deep Space Dance.wav
Peak level 96.5 %
Extraction speed 7.0 X
Track quality 100.0 %
Test CRC B7943AC2
Copy CRC B7943AC2
Accurately ripped (confidence 2) [3C09F636] (AR v2)
Copy OK
Track 8
Filename C:\Phronesis - Life To Everything (2014) {Edition Records}\08 - Herne Hill.wav
Peak level 96.5 %
Extraction speed 7.3 X
Track quality 100.0 %
Test CRC BEBAF44F
Copy CRC BEBAF44F
Accurately ripped (confidence 2) [622B6192] (AR v2)
Copy OK
Track 9
Filename C:\Phronesis - Life To Everything (2014) {Edition Records}\09 - Dr Black.wav
Peak level 96.5 %
Extraction speed 7.8 X
Track quality 100.0 %
Test CRC 0ABA9697
Copy CRC 0ABA9697
Accurately ripped (confidence 2) [FC97B762] (AR v2)
Copy OK
All tracks accurately ripped
No errors occurred
End of status report
==== Log checksum 51FB0FD0CEFE231E799450CBEC7720E4E352455C225D5033A576BBADBE20C100 ====
 
Содержание индексной карты (.CUE)
REM GENRE Jazz
REM DATE 2014
REM DISCID 760EDE09
REM COMMENT "ExactAudioCopy v1.0b3"
PERFORMER "Phronesis"
TITLE "Life To Everything"
FILE "01 - Urban Control.wav" WAVE
TRACK 01 AUDIO
TITLE "Urban Control"
PERFORMER "Phronesis"
INDEX 01 00:00:00
FILE "02 - Phraternal.wav" WAVE
TRACK 02 AUDIO
TITLE "Phraternal"
PERFORMER "Phronesis"
INDEX 01 00:00:00
FILE "03 - Behind Bars.wav" WAVE
TRACK 03 AUDIO
TITLE "Behind Bars"
PERFORMER "Phronesis"
INDEX 01 00:00:00
FILE "04 - Song For Lost Nomads.wav" WAVE
TRACK 04 AUDIO
TITLE "Song For Lost Nomads"
PERFORMER "Phronesis"
INDEX 01 00:00:00
FILE "05 - Wings 2 The Mind.wav" WAVE
TRACK 05 AUDIO
TITLE "Wings 2 The Mind"
PERFORMER "Phronesis"
INDEX 01 00:00:00
FILE "06 - Nine Lives.wav" WAVE
TRACK 06 AUDIO
TITLE "Nine Lives"
PERFORMER "Phronesis"
INDEX 01 00:00:00
FILE "07 - Deep Space Dance.wav" WAVE
TRACK 07 AUDIO
TITLE "Deep Space Dance"
PERFORMER "Phronesis"
INDEX 01 00:00:00
FILE "08 - Herne Hill.wav" WAVE
TRACK 08 AUDIO
TITLE "Herne Hill"
PERFORMER "Phronesis"
INDEX 01 00:00:00
FILE "09 - Dr Black.wav" WAVE
TRACK 09 AUDIO
TITLE "Dr Black"
PERFORMER "Phronesis"
INDEX 01 00:00:00
 
Об альбоме (сборнике)
Life to Everything is the new live album by Anglo/Scandinavian trio Phronesis, recorded over three shows ‘in the round’ at The Cockpit, London as part of the EFG London Jazz Festival in November 2013. Since the success of their fourth album ‘Walking Dark’ two years ago, the trio have been on a meteoric rise, gaining acclaim from fans over two tours of the USA and Canada and a tour of Australia, whilst also rising to the forefront of the European club and festival scene. With so much time spent on the road and a reputation for spell-binding roller-coaster live performances, (which led to Jazzwise once describing them as one of the most exciting bands on the planet), it was natural for the band to want to record their fifth album in front of a live audience. In Høiby’s words – ‘performing live has been the strength of this trio from the start – it sparks an extra focus, excitement and joy. As the album title suggests – it’s where everything comes to life’.
With a highly developed musical understanding between them, onstage these three strong individual personalities are very much a collective, demonstrating an uncanny empathy and a telepathic singular sound like the synaptic firings of one mind. With totally balanced contributions by each band member, the warmth and intensity of the trio’s magical interaction is captured perfectly on Life to Everything, enhanced by the ‘in the round’ set-up of the recording, which as Høiby explains, was a deliberate choice ‘to provide perfect sightlines and an invisible thread of energy between us’.
Over the nine tracks, each member takes a writing credit for three compositions, yet the undeniable trademark Phronesis sound of catchy hooks, complex changes, crackling rhythms and heady grooves is present throughout – a testament to their skills as individual composers.
From the ‘big commanding tone and skittering composure’ (New York Times) of Høiby’s bass at the start of Eger’s Urban Control, layered by Neame’s inventive melodic piano lines and Eger’s relentless creative countercurrents, the sound is instantly recognisable as Phronesis.
Life to Everything has the irresistible excitement, skillful flair and expansive compositional craft that result in undoubtably Phronesis’s most accomplished artistic statement to date.
 
Состав
Personnel:
JASPER HØIBY double bass
IVO NEAME piano
ANTON EGER drums
По всем вопросам пишите личное сообщение пользователю M0p94ok.
01:50
170
Нет комментариев. Ваш будет первым!