Вы используете незарегистрированную версию компонента "Вкладки"!

Поиск

(Chamber Music, Jazz, Electronica, Ambient) [CD] Chat Noir - Elec3cities - 2014, FLAC (image+.cue), lossless

(Chamber Music, Jazz, Electronica, Ambient) [CD] Chat Noir - Elec3cities - 2014, FLAC (image+.cue), lossless
Треклист:
Chat Noir / Elec3cities
Жанр: Chamber Music, Jazz, Electronica, Ambient
Носитель: CD
Страна-производитель диска: UK
Год издания: 2014
Издатель (лейбл): RareNoiseRecords
Номер по каталогу: RNR038
Страна: Italy
Аудиокодек: FLAC (*.flac)
Тип рипа: image+.cue
Битрейт аудио: lossless
Продолжительность: 44:04
Источник (релизер): CD
Наличие сканов в содержимом раздачи: да
Треклист:
1. Avant Buddha
2. Chelsea High Line
3. Ninth
4. Pearls
5. Radio Show
6. Peaceful
7. Our Hearts Have Been Bombed
8. Aspekt
 
Лог создания рипа
Exact Audio Copy V1.0 beta 3 from 29. August 2011
EAC extraction logfile from 6. May 2014, 19:52
Chat Noir / Elec3cities
Used drive : ASUS BW-12B1LT Adapter: 0 ID: 1
Read mode : Secure
Utilize accurate stream : Yes
Defeat audio cache : Yes
Make use of C2 pointers : No
Read offset correction : 6
Overread into Lead-In and Lead-Out : No
Fill up missing offset samples with silence : Yes
Delete leading and trailing silent blocks : No
Null samples used in CRC calculations : Yes
Used interface : Native Win32 interface for Win NT & 2000
Used output format : Internal WAV Routines
Sample format : 44.100 Hz; 16 Bit; Stereo
TOC of the extracted CD
Track | Start | Length | Start sector | End sector
---------------------------------------------------------
1 | 0:00.00 | 6:48.31 | 0 | 30630
2 | 6:48.31 | 5:42.06 | 30631 | 56286
3 | 12:30.37 | 6:10.22 | 56287 | 84058
4 | 18:40.59 | 3:11.25 | 84059 | 98408
5 | 21:52.09 | 5:01.12 | 98409 | 120995
6 | 26:53.21 | 4:10.55 | 120996 | 139800
7 | 31:04.01 | 7:05.68 | 139801 | 171743
8 | 38:09.69 | 5:53.69 | 171744 | 198287
Range status and errors
Selected range
Filename D:\Temp\Chat Noir - Elec3cities.wav
Peak level 98.5 %
Extraction speed 6.9 X
Range quality 100.0 %
Test CRC E3412D59
Copy CRC E3412D59
Copy OK
No errors occurred
AccurateRip summary
Track 1 not present in database
Track 2 not present in database
Track 3 not present in database
Track 4 not present in database
Track 5 not present in database
Track 6 not present in database
Track 7 not present in database
Track 8 not present in database
None of the tracks are present in the AccurateRip database
End of status report
---- CUETools DB Plugin V2.1.3
[CTDB TOCID: I8DpqG.pnIiqtnof8DmIiRPwYrU-] found, Submit result: I8DpqG.pnIiqtnof8DmIiRPwYrU- has been confirmed
[bdbe8b3a] (1/1) Accurately ripped
==== Log checksum 4CDA046F747C82DD548968E4004A9DDD82085267EB2A1DD83803127F81A7810C ====
 
Содержание индексной карты (.CUE)
REM GENRE "Chamber Music, Jazz, Ambient, Electronica"
REM DATE 2014
REM DISCID 540A5308
REM COMMENT "ExactAudioCopy v1.0b3"
PERFORMER "Chat Noir"
TITLE "Elec3cities"
FILE "Chat Noir - Elec3cities.flac" WAVE
TRACK 01 AUDIO
TITLE "Avant Buddha"
PERFORMER "Chat Noir"
INDEX 01 00:00:00
TRACK 02 AUDIO
TITLE "Chelsea High Line"
PERFORMER "Chat Noir"
INDEX 00 06:47:11
INDEX 01 06:48:31
TRACK 03 AUDIO
TITLE "Ninth"
PERFORMER "Chat Noir"
INDEX 01 12:30:37
TRACK 04 AUDIO
TITLE "Pearls"
PERFORMER "Chat Noir"
INDEX 00 18:38:59
INDEX 01 18:40:59
TRACK 05 AUDIO
TITLE "Radio Show"
PERFORMER "Chat Noir"
INDEX 00 21:50:09
INDEX 01 21:52:09
TRACK 06 AUDIO
TITLE "Peaceful"
PERFORMER "Chat Noir"
INDEX 00 26:51:21
INDEX 01 26:53:21
TRACK 07 AUDIO
TITLE "Our Hearts Have Been Bombed"
PERFORMER "Chat Noir"
INDEX 00 31:02:01
INDEX 01 31:04:01
TRACK 08 AUDIO
TITLE "Aspekt"
PERFORMER "Chat Noir"
INDEX 01 38:09:69
По всем вопросам пишите личное сообщение пользователю M0p94ok.
01:48
174
Нет комментариев. Ваш будет первым!