Поиск

(Avant-Garde Jazz, Contemporary Jazz) [CD] Jorrit Dijkstra, Steve Arguelles, Mischa Kool - Trio - 1992, FLAC (image+.cue), lossless

(Avant-Garde Jazz, Contemporary Jazz) [CD] Jorrit Dijkstra, Steve Arguelles, Mischa Kool - Trio - 1992, FLAC (image+.cue), lossless
Jorrit Dykstra, Steve Argüelles, Mischa Kool / Trio
Жанр: Avant-Garde Jazz, Contemporary Jazz
Носитель: CD
Страна-производитель диска: Netherlands
Год издания: 1992
Издатель (лейбл): Disckus Records
Номер по каталогу: DC 05
Аудиокодек: FLAC (*.flac)
Тип рипа: image+.cue
Битрейт аудио: lossless
Продолжительность: 53:58
Источник (релизер): CD
Наличие сканов в содержимом раздачи: нет
Треклист:
1 The Gig (Written-By – Herbie Nichols) 5:00
2 Native 5:22
3 Oogjes 6:10
4 Lijnen II 3:53
5 Hoemelakken 3:48
6 Elderberries 3:46
7 Tangoing-by 5:40
8 Pula 4:25
9 Law Years (Written-By – Ornette Coleman) 4:09
10 Daughter Of Drums 5:36
11 Let's Cool One (Written-By – Thelonious Monk) 5:43
 
Лог создания рипа
Exact Audio Copy V1.0 beta 2 from 29. April 2011
EAC extraction logfile from 7. May 2014, 11:15
Jorrit Dykstra, Steve Arguelles, Mischa Kool / Trio
Used drive : Optiarc DVD RW AD-7170A Adapter: 0 ID: 0
Read mode : Secure
Utilize accurate stream : Yes
Defeat audio cache : Yes
Make use of C2 pointers : No
Read offset correction : 48
Overread into Lead-In and Lead-Out : No
Fill up missing offset samples with silence : Yes
Delete leading and trailing silent blocks : No
Null samples used in CRC calculations : Yes
Used interface : Native Win32 interface for Win NT & 2000
Used output format : User Defined Encoder
Selected bitrate : 320 kBit/s
Quality : High
Add ID3 tag : No
Command line compressor : C:\Program Files\Exact Audio Copy\Flac\flac.exe
Additional command line options : -V -8 -T "Date=%year%" -T "Genre=%genre%" %source%
TOC of the extracted CD
Track | Start | Length | Start sector | End sector
---------------------------------------------------------
1 | 0:00.00 | 5:04.02 | 0 | 22801
2 | 5:04.02 | 5:24.53 | 22802 | 47154
3 | 10:28.55 | 6:12.60 | 47155 | 75114
4 | 16:41.40 | 3:54.57 | 75115 | 92721
5 | 20:36.22 | 3:50.00 | 92722 | 109971
6 | 24:26.22 | 3:49.15 | 109972 | 127161
7 | 28:15.37 | 5:43.00 | 127162 | 152886
8 | 33:58.37 | 4:26.55 | 152887 | 172891
9 | 38:25.17 | 4:10.58 | 172892 | 191699
10 | 42:36.00 | 5:38.00 | 191700 | 217049
11 | 48:14.00 | 5:44.22 | 217050 | 242871
Range status and errors
Selected range
Filename K:\ЕАС\Jorrit Dykstra, Steve Arguelles, Mischa Kool - Trio.wav
Peak level 100.0 %
Extraction speed 1.9 X
Range quality 100.0 %
Test CRC 14419F07
Copy CRC 14419F07
Copy OK
No errors occurred
AccurateRip summary
Track 1 accurately ripped (confidence 1) [7689045F] (AR v2)
Track 2 accurately ripped (confidence 1) [45AC2DBB] (AR v2)
Track 3 accurately ripped (confidence 1) [1758C8DF] (AR v2)
Track 4 accurately ripped (confidence 1) [A1CE543E] (AR v2)
Track 5 accurately ripped (confidence 1) [93C6C9E2] (AR v2)
Track 6 accurately ripped (confidence 1) [4F0C572D] (AR v2)
Track 7 accurately ripped (confidence 1) [5778E268] (AR v2)
Track 8 accurately ripped (confidence 1) [480E2B5C] (AR v2)
Track 9 accurately ripped (confidence 1) [73D3EF14] (AR v2)
Track 10 accurately ripped (confidence 1) [3D7D39FF] (AR v2)
Track 11 accurately ripped (confidence 1) [7817E0EE] (AR v2)
All tracks accurately ripped
End of status report
==== Log checksum CC6B8A30B160AE635F234526C57332DCE04D80200DDF0E572BD8EDE5340B6D24 ====
 
Содержание индексной карты (.CUE)
REM GENRE Jazz
REM DATE 1992
REM DISCID 8F0CA60B
REM COMMENT "ExactAudioCopy v1.0b2"
PERFORMER "Jorrit Dykstra, Steve Arguelles, Mischa Kool"
TITLE "Trio"
FILE "Jorrit Dykstra, Steve Arguelles, Mischa Kool - Trio.flac" WAVE
TRACK 01 AUDIO
TITLE "The Gig"
PERFORMER "Jorrit Dykstra, Steve Arguelles, Mischa Kool"
INDEX 01 00:00:00
TRACK 02 AUDIO
TITLE "Native"
PERFORMER "Jorrit Dykstra, Steve Arguelles, Mischa Kool"
INDEX 00 05:00:50
INDEX 01 05:04:02
TRACK 03 AUDIO
TITLE "Oogjes"
PERFORMER "Jorrit Dykstra, Steve Arguelles, Mischa Kool"
INDEX 00 10:26:30
INDEX 01 10:28:55
TRACK 04 AUDIO
TITLE "Lijnen II"
PERFORMER "Jorrit Dykstra, Steve Arguelles, Mischa Kool"
INDEX 00 16:39:50
INDEX 01 16:41:40
TRACK 05 AUDIO
TITLE "Hoemelakken"
PERFORMER "Jorrit Dykstra, Steve Arguelles, Mischa Kool"
INDEX 00 20:34:55
INDEX 01 20:36:22
TRACK 06 AUDIO
TITLE "Elderberries"
PERFORMER "Jorrit Dykstra, Steve Arguelles, Mischa Kool"
INDEX 00 24:24:25
INDEX 01 24:26:22
TRACK 07 AUDIO
TITLE "Tangoing-by"
PERFORMER "Jorrit Dykstra, Steve Arguelles, Mischa Kool"
INDEX 00 28:13:02
INDEX 01 28:15:37
TRACK 08 AUDIO
TITLE "Pula"
PERFORMER "Jorrit Dykstra, Steve Arguelles, Mischa Kool"
INDEX 00 33:55:42
INDEX 01 33:58:37
TRACK 09 AUDIO
TITLE "Law Years"
PERFORMER "Jorrit Dykstra, Steve Arguelles, Mischa Kool"
INDEX 00 38:23:12
INDEX 01 38:25:17
TRACK 10 AUDIO
TITLE "Daughter of Drums"
PERFORMER "Jorrit Dykstra, Steve Arguelles, Mischa Kool"
INDEX 00 42:34:72
INDEX 01 42:36:00
TRACK 11 AUDIO
TITLE "Let's Cool One"
PERFORMER "Jorrit Dykstra, Steve Arguelles, Mischa Kool"
INDEX 00 48:12:72
INDEX 01 48:14:00
Доп. информация: Recorded at the Bimhuis Amsterdam, May 8 & 10, 1992.
 
Состав
Acoustic Bass – Mischa Kool
Alto Saxophone, Producer, Design – Jorrit Dykstra
Drums, Percussion – Steve Argüelles
01:48
300
Нет комментариев. Ваш будет первым!