Вы используете незарегистрированную версию компонента "Вкладки"!

Поиск

(Free Improvisation, Contemporary Jazz) [CD] Gael Mevel Trio (Jean-Jacques Avenel, Thierry Waziniak) - Danses Paralleles - 2003, FLAC (tracks+.cue), lossless

(Free Improvisation, Contemporary Jazz) [CD] Gael Mevel Trio (Jean-Jacques Avenel, Thierry Waziniak) - Danses Paralleles - 2003, FLAC (tracks+.cue), lossless
Треклист:
Gaël Mevel Trio / Danses Parallèles
Жанр: Free Improvisation, Contemporary Jazz
Носитель: CD
Страна-производитель диска (релиза): UK
Год издания: 2003
Издатель (лейбл): Leo Records
Номер по каталогу: CD LR 376
Аудиокодек: FLAC (*.flac)
Тип рипа: tracks+.cue
Битрейт аудио: lossless
Продолжительность: 51:14
Источник (релизер): CD
Наличие сканов в содержимом раздачи: нет
Треклист:
1 Un Oiseau Sur L'épaule 2:56
2 Le Pencheur De Balance 9:38
3 La Marchande Speculoos 6:49
4 Valse Soudaine 1:05
5 Judex 4:12
6 La Valse Naturelle 11:27
7 Perlude 1:59
8 Le Temps Est À L'orange 7:53
9 Un Autre Oiseau 4:50
 
Лог создания рипа
Exact Audio Copy V1.0 beta 3 from 29. August 2011
EAC extraction logfile from 7. January 2015, 12:09
Gael Mevel Trio / Danses Paralleles
Used drive : ASUS DRW-24F1ST a Adapter: 0 ID: 0
Read mode : Secure
Utilize accurate stream : Yes
Defeat audio cache : Yes
Make use of C2 pointers : No
Read offset correction : 6
Overread into Lead-In and Lead-Out : No
Fill up missing offset samples with silence : Yes
Delete leading and trailing silent blocks : No
Null samples used in CRC calculations : Yes
Used interface : Native Win32 interface for Win NT & 2000
Gap handling : Appended to previous track
Used output format : User Defined Encoder
Selected bitrate : 320 kBit/s
Quality : High
Add ID3 tag : No
Command line compressor : D:\Programs\Exact Audio Copy\Flac\flac.exe
Additional command line options : -V -8 -T "Genre=%genre%" -T "Artist=%artist%" -T "Title=%title%" -T "Album=%albumtitle%" -T "Date=%year%" -T "Tracknumber=%tracknr%" -T "Comment=%comment%" %source%
TOC of the extracted CD
Track | Start | Length | Start sector | End sector
---------------------------------------------------------
1 | 0:00.00 | 2:57.66 | 0 | 13340
2 | 2:57.66 | 9:43.73 | 13341 | 57138
3 | 12:41.64 | 6:52.38 | 57139 | 88076
4 | 19:34.27 | 1:08.61 | 88077 | 93237
5 | 20:43.13 | 4:15.16 | 93238 | 112378
6 | 24:58.29 | 11:29.47 | 112379 | 164100
7 | 36:28.01 | 2:03.28 | 164101 | 173353
8 | 38:31.29 | 7:52.70 | 173354 | 208823
9 | 46:24.24 | 4:50.41 | 208824 | 230614
Track 1
Filename D:\EAC\01 Un Oiseau Sur L'epaule.wav
Pre-gap length 0:00:02.00
Peak level 78.0 %
Extraction speed 4.0 X
Track quality 100.0 %
Test CRC 76C6DA1F
Copy CRC 76C6DA1F
Copy OK
Track 2
Filename D:\EAC\02 Le Pencheur De Balance.wav
Peak level 98.1 %
Extraction speed 5.0 X
Track quality 99.9 %
Test CRC A0B2B5C8
Copy CRC A0B2B5C8
Copy OK
Track 3
Filename D:\EAC\03 La Marchande Speculoos.wav
Peak level 97.8 %
Extraction speed 6.0 X
Track quality 100.0 %
Test CRC D6875ED1
Copy CRC D6875ED1
Copy OK
Track 4
Filename D:\EAC\04 Valse Soudaine.wav
Peak level 54.6 %
Extraction speed 4.4 X
Track quality 100.0 %
Test CRC AF6DCB2C
Copy CRC AF6DCB2C
Copy OK
Track 5
Filename D:\EAC\05 Judex.wav
Peak level 80.6 %
Extraction speed 6.2 X
Track quality 100.0 %
Test CRC 0CAA8043
Copy CRC 0CAA8043
Copy OK
Track 6
Filename D:\EAC\06 La Valse Naturelle.wav
Peak level 97.8 %
Extraction speed 7.4 X
Track quality 100.0 %
Test CRC 37A3A2C8
Copy CRC 37A3A2C8
Copy OK
Track 7
Filename D:\EAC\07 Perlude.wav
Peak level 58.2 %
Extraction speed 6.2 X
Track quality 100.0 %
Test CRC A35B0352
Copy CRC A35B0352
Copy OK
Track 8
Filename D:\EAC\08 Le Temps Est A L'orange.wav
Peak level 100.0 %
Extraction speed 7.9 X
Track quality 100.0 %
Test CRC 7921DC55
Copy CRC 7921DC55
Copy OK
Track 9
Filename D:\EAC\09 Un Autre Oiseau.wav
Peak level 92.2 %
Extraction speed 7.8 X
Track quality 100.0 %
Test CRC 209645CB
Copy CRC 209645CB
Copy OK
No errors occurred
End of status report
==== Log checksum 5E6C2A9C788D3B8B3B826705D2A9889B3017A95943C079B45BA7AE7A3BA49653 ====
 
Содержание индексной карты (.CUE)
REM GENRE Jazz
REM DATE 2003
REM DISCID 700C0209
REM COMMENT "ExactAudioCopy v1.0b3"
PERFORMER "Gael Mevel Trio"
TITLE "Danses Paralleles"
FILE "01 Un Oiseau Sur L'epaule.wav" WAVE
TRACK 01 AUDIO
TITLE "Un Oiseau Sur L'epaule"
PERFORMER "Gael Mevel Trio"
INDEX 01 00:00:00
FILE "02 Le Pencheur De Balance.wav" WAVE
TRACK 02 AUDIO
TITLE "Le Pencheur De Balance"
PERFORMER "Gael Mevel Trio"
INDEX 01 00:00:00
FILE "03 La Marchande Speculoos.wav" WAVE
TRACK 03 AUDIO
TITLE "La Marchande Speculoos"
PERFORMER "Gael Mevel Trio"
INDEX 01 00:00:00
FILE "04 Valse Soudaine.wav" WAVE
TRACK 04 AUDIO
TITLE "Valse Soudaine"
PERFORMER "Gael Mevel Trio"
INDEX 01 00:00:00
FILE "05 Judex.wav" WAVE
TRACK 05 AUDIO
TITLE "Judex"
PERFORMER "Gael Mevel Trio"
INDEX 01 00:00:00
FILE "06 La Valse Naturelle.wav" WAVE
TRACK 06 AUDIO
TITLE "La Valse Naturelle"
PERFORMER "Gael Mevel Trio"
INDEX 01 00:00:00
FILE "07 Perlude.wav" WAVE
TRACK 07 AUDIO
TITLE "Perlude"
PERFORMER "Gael Mevel Trio"
INDEX 01 00:00:00
FILE "08 Le Temps Est A L'orange.wav" WAVE
TRACK 08 AUDIO
TITLE "Le Temps Est A L'orange"
PERFORMER "Gael Mevel Trio"
INDEX 01 00:00:00
FILE "09 Un Autre Oiseau.wav" WAVE
TRACK 09 AUDIO
TITLE "Un Autre Oiseau"
PERFORMER "Gael Mevel Trio"
INDEX 01 00:00:00
 
Об альбоме (сборнике)
Second CD on Leo Records by the pianist/composer/leader Gaël Mevel with Jean-Jacques Avenel on bass and Thierry Waziniak on drums. Although played atonally, an attentive listener will be able to discern 9 subtle waltzes of different duration. Gael Mevel has already been called the most poetic player, and with this CD his reputation is being confirmed.
 
Состав
Bass – Jean-Jacques Avenel
Drums – Thierry Waziniak
Piano, Bandoneon – Gaël Mevel
По всем вопросам пишите личное сообщение пользователю M0p94ok.
08:05
141
Нет комментариев. Ваш будет первым!