Вы используете незарегистрированную версию компонента "Вкладки"!

Поиск

(Free Improvisation, Free Jazz, Avant-Garde) [CD] Peter Brotzmann, John Edwards, Steve Noble - Soulfood Available - 2014, FLAC (tracks+.cue), lossless

(Free Improvisation, Free Jazz, Avant-Garde) [CD] Peter Brotzmann, John Edwards, Steve Noble - Soulfood Available - 2014, FLAC (tracks+.cue), lossless
Треклист:
BROTZMANN/NOBLE/EDWARDS
SOULFOOD
AVAILABLE Жанр: Free Improvisation, Free Jazz, Avant-Garde
Страна-производитель диска (релиза): Portugal
Год издания: 2014
Издатель (лейбл): Clean Feed
Номер по каталогу: CF316
Аудиокодек: FLAC (*.flac)
Тип рипа: tracks+.cue
Битрейт аудио: lossless
Продолжительность: 58:20
Источник (релизер): спасибо 6060842
Наличие сканов в содержимом раздачи: нет
/Треклист/
1. Soulfood Available
2. Don't Fly Away
3. Nail Dogs By Ears
 
Лог создания рипа
X Lossless Decoder version 20141129 (148.1)
XLD extraction logfile from 2015-01-05 18:42:39 +0300
Peter Brötzmann, John Edwards, Steve Noble / Soulfood Available
Used drive : HL-DT-ST DVDRW GX30N (revision RP09)
Media type : Pressed CD
Ripper mode : XLD Secure Ripper
Disable audio cache : OK for the drive with a cache less than 1375KiB
Make use of C2 pointers : NO
Read offset correction : 6
Max retry count : 10000
Gap status : Analyzed, Appended (except HTOA)
TOC of the extracted CD
Track | Start | Length | Start sector | End sector
---------------------------------------------------------
1 | 00:00:00 | 43:36:01 | 0 | 196200
2 | 43:36:01 | 08:00:34 | 196201 | 232234
3 | 51:36:35 | 06:44:16 | 232235 | 262550
AccurateRip Summary
Disc not found in AccurateRip DB.
All Tracks
Album gain : 2.56 dB
Peak : 0.969055
Statistics
Read error : 0
Jitter error (maybe fixed) : 0
Retry sector count : 0
Damaged sector count : 0
Track 01
Filename : /Users/Shared/Grabbed/Peter Brotzmann, John Edwards, Steve Noble - 2014 - Soulfood Available [MP3 320]/01 - Soulfood Available.mp3
/Users/Shared/Grabbed/Peter Brotzmann, John Edwards, Steve Noble - 2014 - Soulfood Available [FLAC]/01 - Soulfood Available.flac
Pre-gap length : 00:02:00
Track gain : 2.48 dB
Peak : 0.903076
CRC32 hash (test run) : 3BDC4422
CRC32 hash : 3BDC4422
CRC32 hash (skip zero) : 9685E35D
AccurateRip v1 signature : 6E44602B
AccurateRip v2 signature : 5EA7E081
->Track not present in AccurateRip database.
Statistics
Read error : 0
Jitter error (maybe fixed) : 0
Retry sector count : 0
Damaged sector count : 0
Track 02
Filename : /Users/Shared/Grabbed/Peter Brotzmann, John Edwards, Steve Noble - 2014 - Soulfood Available [MP3 320]/02 - Don't Fly Away.mp3
/Users/Shared/Grabbed/Peter Brotzmann, John Edwards, Steve Noble - 2014 - Soulfood Available [FLAC]/02 - Don't Fly Away.flac
Track gain : 2.75 dB
Peak : 0.969055
CRC32 hash (test run) : 8D0A243D
CRC32 hash : 8D0A243D
CRC32 hash (skip zero) : 9FD7583E
AccurateRip v1 signature : 426E16D9
AccurateRip v2 signature : 6D5A8C21
->Track not present in AccurateRip database.
Statistics
Read error : 0
Jitter error (maybe fixed) : 0
Retry sector count : 0
Damaged sector count : 0
Track 03
Filename : /Users/Shared/Grabbed/Peter Brotzmann, John Edwards, Steve Noble - 2014 - Soulfood Available [MP3 320]/03 - Nail Dogs By Ears.mp3
/Users/Shared/Grabbed/Peter Brotzmann, John Edwards, Steve Noble - 2014 - Soulfood Available [FLAC]/03 - Nail Dogs By Ears.flac
Track gain : 2.85 dB
Peak : 0.880890
CRC32 hash (test run) : F4560BEA
CRC32 hash : F4560BEA
CRC32 hash (skip zero) : AFF61A19
AccurateRip v1 signature : 35DF4B3A
AccurateRip v2 signature : 7EF427B3
->Track not present in AccurateRip database.
Statistics
Read error : 0
Jitter error (maybe fixed) : 0
Retry sector count : 0
Damaged sector count : 0
No errors occurred
End of status report
-----BEGIN XLD SIGNATURE-----
x.oP3plwkbOC8HTYSYA8.Vgz35R5gnEPbrKO2Vr6xPPgGNAwE9rQKGyAivKSzfCfiOxnLCeGmsmhSLHWZwUMrLsrx.4ajv0Tum5vJZK
-----END XLD SIGNATURE-----
 
Содержание индексной карты (.CUE)
TITLE "Soulfood Available"
PERFORMER "Peter Brötzmann, John Edwards, Steve Noble"
CATALOG 5609063003161
REM GENRE "Free Jazz"
REM DATE "2014"
REM DISCID 270DAC03
REM REPLAYGAIN_ALBUM_GAIN 2.56 dB
REM REPLAYGAIN_ALBUM_PEAK 0.969055
FILE "01 - Soulfood Available.flac" WAVE
TRACK 01 AUDIO
TITLE "Soulfood Available"
PERFORMER "Peter Brötzmann, John Edwards, Steve Noble"
REM REPLAYGAIN_TRACK_GAIN 2.48 dB
REM REPLAYGAIN_TRACK_PEAK 0.903076
INDEX 01 00:00:00
FILE "02 - Don't Fly Away.flac" WAVE
TRACK 02 AUDIO
TITLE "Don't Fly Away"
PERFORMER "Peter Brötzmann, John Edwards, Steve Noble"
REM REPLAYGAIN_TRACK_GAIN 2.75 dB
REM REPLAYGAIN_TRACK_PEAK 0.969055
INDEX 01 00:00:00
FILE "03 - Nail Dogs By Ears.flac" WAVE
TRACK 03 AUDIO
TITLE "Nail Dogs By Ears"
PERFORMER "Peter Brötzmann, John Edwards, Steve Noble"
ISRC PTNF11409166
REM REPLAYGAIN_TRACK_GAIN 2.85 dB
REM REPLAYGAIN_TRACK_PEAK 0.880890
INDEX 01 00:00:00
 
Об альбоме
Listeners often ask where to begin listening to the music of Peter Brötzmann. Recording for nearly 50 years (yes, five-0), he has amassed a discography that totals nearly 300 recordings. Do you start back in the Machine Gun days and his work with FMP, fast forward to Material and Last Exit or his grand projects, the Chicago Tentet and Sonore with Ken Vandermark and Mats Gustafsson?
The answer is that his career is like a river. While you cannot step into the Rhine, the Rhone or the Monongahela in the same place twice, any where you drop a needle or press play on a Brotzmann date is an immersion into the depths of his music. The live trio date is a fine place to start or continue, for that matter, with the Brotzmann experience.
This live date from the Ljubljana Jazz Festival in 2013 finds the saxophonist with the London improvisers John Edwards (bass) and Steve Noble (drums). Their very first meeting in 2010 is documented with The Worse the Better (Otoroku, 2012) and the trio also recorded a smoking set with the addition of Brotzmann's dup partner Jason Adasiewicz (Otoroku, 2014).
The three scorch this nearly hour long set opening with Brotzmann's trademark thunderous tenor sound. The saxophonist favors energy drummers and juggling bassists that can keep the musical balls constantly in the air. Edwards and Noble, who have been heard with Joe McPhee, Akira Sakata, Alan Wilkinson, and Lol Coxhill are certainly up for the task. The music is presented as a 43-minute title track and two shortish improvisations, is both primordial and Ellingtonian. Those seemingly disparate concepts make sense here. Brotzmann blows an untamed saxophone, b-flat clarinet, or taragato, as if it were the first notes ever sent forth. But he also crafts his improvisations not unlike a Duke Ellington suite. Segments of ferocity are contrasted by bluesy sections, and energy parts are set off against introspective passages. This recording should be compared to Songlines (FMP, 1991) with Fred Hopkins and Rashied Ali. Brotzmann displays just as much energy and perhaps even more creativity. (Mark Corroto, AllAboutJazz)
 
Состав

Peter Brotzmann - tenor saxophone, alto saxophone, b-flat clarinet, taragato
John Edwards - double bass
Steve Noble - drums
По всем вопросам пишите личное сообщение пользователю M0p94ok.
08:04
140
Нет комментариев. Ваш будет первым!