Вы используете незарегистрированную версию компонента "Вкладки"!

Поиск

(Free Improvisation) [CD] Thomas Buckner / Joelle Leandre / Nicole Mitchell - Flowing Stream - 2014, FLAC (tracks+.cue), lossless

(Free Improvisation) [CD] Thomas Buckner / Joelle Leandre / Nicole Mitchell - Flowing Stream - 2014, FLAC (tracks+.cue), lossless
Треклист:
Thomas Buckner - Joëlle Léandre - Nicole Mitchell / Flowing Stream
Жанр: Free Improvisation
Носитель: CD
Страна-производитель диска (релиза): UK
Год издания: 2014
Издатель (лейбл): Leo Records
Номер по каталогу: CD LR 701
Аудиокодек: FLAC (*.flac)
Тип рипа: tracks+.cue
Битрейт аудио: lossless
Продолжительность: 40:28
Источник (релизер): whatcd (dtromp)
Наличие сканов в содержимом раздачи: нет
Треклист:
1. Take 6b Trio 4:07
2. Take 6c Trio 1:32
3. Take 6d Trio 3:55
4. Take 7b Flute & Bass 4:17
5. Take 8b Flute & Voice 3:04
6. Take 9a Bass & Voice 5:19
7. Take 10a Trio 3:42
8. Take 10b Trio 3:29
9. Take 10c Trio 4:58
10. Take 11a Trio 1:14
11. Take 11b Trio 1:51
12. Take 11c Trio 2:54
 
Лог создания рипа
Exact Audio Copy V1.0 beta 4 from 7. December 2014
EAC extraction logfile from 19. February 2015, 15:31
Buckner, Leandre, Mitchell / Flowing Stream
Used drive : ATAPI iHBS112 2 Adapter: 1 ID: 0
Read mode : Secure
Utilize accurate stream : Yes
Defeat audio cache : Yes
Make use of C2 pointers : No
Read offset correction : 6
Overread into Lead-In and Lead-Out : No
Fill up missing offset samples with silence : Yes
Delete leading and trailing silent blocks : No
Null samples used in CRC calculations : Yes
Used interface : Native Win32 interface for Win NT & 2000
Gap handling : Appended to previous track
Used output format : User Defined Encoder
Selected bitrate : 1024 kBit/s
Quality : High
Add ID3 tag : No
Command line compressor : C:\Program Files\Exact Audio Copy\Flac\flac.exe
Additional command line options : -8 -V -T "ARTIST=%artist%" -T "TITLE=%title%" -T "ALBUM=%albumtitle%" -T "DATE=%year%" -T "TRACKNUMBER=%tracknr%" -T "TOTALTRACKS=%numtracks%" -T "GENRE=%genre%" -T "ALBUMARTIST=%albumartist%" -T "ALBUM ARTIST=%albumartist%" -T "COMPOSER=%composer%" -T "PERFORMER=%albuminterpret%" -T "DISCNUMBER=%cdnumber%" -T "TOTALDISCS=%totalcds%" -T "COMMENT=EAC Secure Mode, Test & Copy, AccurateRip, FLAC -8" %source%
TOC of the extracted CD
Track | Start | Length | Start sector | End sector
---------------------------------------------------------
1 | 0:00.00 | 4:07.59 | 0 | 18583
2 | 4:07.59 | 1:32.58 | 18584 | 25541
3 | 5:40.42 | 3:55.44 | 25542 | 43210
4 | 9:36.11 | 4:17.59 | 43211 | 62544
5 | 13:53.70 | 3:04.06 | 62545 | 76350
6 | 16:58.01 | 5:19.43 | 76351 | 100318
7 | 22:17.44 | 3:42.37 | 100319 | 117005
8 | 26:00.06 | 3:29.48 | 117006 | 132728
9 | 29:29.54 | 4:58.49 | 132729 | 155127
10 | 34:28.28 | 1:14.26 | 155128 | 160703
11 | 35:42.54 | 1:51.16 | 160704 | 169044
12 | 37:33.70 | 2:54.57 | 169045 | 182151
Track 1
Filename P:\DL\Buckner, Leandre, Mitchell - Flowing Stream (2014) [FLAC]\01 - Take 6b Trio.wav
Pre-gap length 0:00:02.00
Peak level 86.4 %
Extraction speed 4.9 X
Track quality 100.0 %
Test CRC 1D6F2D2B
Copy CRC 1D6F2D2B
Track not present in AccurateRip database
Copy OK
Track 2
Filename P:\DL\Buckner, Leandre, Mitchell - Flowing Stream (2014) [FLAC]\02 - Take 6c Trio.wav
Peak level 83.5 %
Extraction speed 4.4 X
Track quality 100.0 %
Test CRC 8FB9C845
Copy CRC 8FB9C845
Track not present in AccurateRip database
Copy OK
Track 3
Filename P:\DL\Buckner, Leandre, Mitchell - Flowing Stream (2014) [FLAC]\03 - Take 6d Trio.wav
Peak level 77.4 %
Extraction speed 5.6 X
Track quality 100.0 %
Test CRC 815BFC95
Copy CRC 815BFC95
Track not present in AccurateRip database
Copy OK
Track 4
Filename P:\DL\Buckner, Leandre, Mitchell - Flowing Stream (2014) [FLAC]\04 - Take 7b Flute & Bass.wav
Peak level 96.5 %
Extraction speed 6.1 X
Track quality 100.0 %
Test CRC E183E4AE
Copy CRC E183E4AE
Track not present in AccurateRip database
Copy OK
Track 5
Filename P:\DL\Buckner, Leandre, Mitchell - Flowing Stream (2014) [FLAC]\05 - Take 8b Flute & Voice.wav
Peak level 98.7 %
Extraction speed 6.2 X
Track quality 100.0 %
Test CRC 7B02F409
Copy CRC 7B02F409
Track not present in AccurateRip database
Copy OK
Track 6
Filename P:\DL\Buckner, Leandre, Mitchell - Flowing Stream (2014) [FLAC]\06 - Take 9a Bass & Voice.wav
Peak level 98.7 %
Extraction speed 7.0 X
Track quality 100.0 %
Test CRC B6F9A05B
Copy CRC B6F9A05B
Track not present in AccurateRip database
Copy OK
Track 7
Filename P:\DL\Buckner, Leandre, Mitchell - Flowing Stream (2014) [FLAC]\07 - Take 10a Trio.wav
Peak level 98.7 %
Extraction speed 7.1 X
Track quality 100.0 %
Test CRC C922B1AD
Copy CRC C922B1AD
Track not present in AccurateRip database
Copy OK
Track 8
Filename P:\DL\Buckner, Leandre, Mitchell - Flowing Stream (2014) [FLAC]\08 - Take 10b Trio.wav
Peak level 98.7 %
Extraction speed 7.2 X
Track quality 100.0 %
Test CRC 8C75724E
Copy CRC 8C75724E
Track not present in AccurateRip database
Copy OK
Track 9
Filename P:\DL\Buckner, Leandre, Mitchell - Flowing Stream (2014) [FLAC]\09 - Take 10c Trio.wav
Peak level 98.7 %
Extraction speed 8.1 X
Track quality 100.0 %
Test CRC 8CA6B0B8
Copy CRC 8CA6B0B8
Track not present in AccurateRip database
Copy OK
Track 10
Filename P:\DL\Buckner, Leandre, Mitchell - Flowing Stream (2014) [FLAC]\10 - Take 11a Trio.wav
Peak level 98.7 %
Extraction speed 4.2 X
Track quality 99.8 %
Test CRC 68F0D93F
Copy CRC 68F0D93F
Track not present in AccurateRip database
Copy OK
Track 11
Filename P:\DL\Buckner, Leandre, Mitchell - Flowing Stream (2014) [FLAC]\11 - Take 11b Trio.wav
Peak level 98.7 %
Extraction speed 5.2 X
Track quality 99.9 %
Test CRC 060D42D7
Copy CRC 060D42D7
Track not present in AccurateRip database
Copy OK
Track 12
Filename P:\DL\Buckner, Leandre, Mitchell - Flowing Stream (2014) [FLAC]\12 - Take 11c Trio.wav
Peak level 98.7 %
Extraction speed 7.9 X
Track quality 100.0 %
Test CRC CF39D951
Copy CRC CF39D951
Track not present in AccurateRip database
Copy OK
None of the tracks are present in the AccurateRip database
No errors occurred
End of status report
---- CUETools DB Plugin V2.1.4
[CTDB TOCID: fRbVjfLGq9ThPvhAxY3nQPSwH5U-] found
Submit result: already submitted
Track | CTDB Status
1 | (1/1) Accurately ripped
2 | (1/1) Accurately ripped
3 | (1/1) Accurately ripped
4 | (1/1) Accurately ripped
5 | (1/1) Accurately ripped
6 | (1/1) Accurately ripped
7 | (1/1) Accurately ripped
8 | (1/1) Accurately ripped
9 | (1/1) Accurately ripped
10 | (1/1) Accurately ripped
11 | (1/1) Accurately ripped
12 | (1/1) Accurately ripped
==== Log checksum ACAD435BD6F787FE14ADC2C7C035A0BA9FC1F2D19410281AD97EF3170BC37ED8 ====
 
Содержание индексной карты (.CUE)
REM GENRE Jazz
REM DATE 2014
REM DISCID 91097C0C
REM COMMENT "ExactAudioCopy v1.0b4"
PERFORMER "Buckner, Leandre, Mitchell"
TITLE "Flowing Stream"
FILE "01 - Take 6b Trio.wav" WAVE
TRACK 01 AUDIO
TITLE "Take 6b Trio"
PERFORMER "Buckner, Leandre, Mitchell"
FLAGS DCP
INDEX 01 00:00:00
FILE "02 - Take 6c Trio.wav" WAVE
TRACK 02 AUDIO
TITLE "Take 6c Trio"
PERFORMER "Buckner, Leandre, Mitchell"
FLAGS DCP
INDEX 01 00:00:00
FILE "03 - Take 6d Trio.wav" WAVE
TRACK 03 AUDIO
TITLE "Take 6d Trio"
PERFORMER "Buckner, Leandre, Mitchell"
FLAGS DCP
INDEX 01 00:00:00
FILE "04 - Take 7b Flute & Bass.wav" WAVE
TRACK 04 AUDIO
TITLE "Take 7b Flute & Bass"
PERFORMER "Buckner, Leandre, Mitchell"
FLAGS DCP
INDEX 01 00:00:00
FILE "05 - Take 8b Flute & Voice.wav" WAVE
TRACK 05 AUDIO
TITLE "Take 8b Flute & Voice"
PERFORMER "Buckner, Leandre, Mitchell"
FLAGS DCP
INDEX 01 00:00:00
FILE "06 - Take 9a Bass & Voice.wav" WAVE
TRACK 06 AUDIO
TITLE "Take 9a Bass & Voice"
PERFORMER "Buckner, Leandre, Mitchell"
FLAGS DCP
INDEX 01 00:00:00
FILE "07 - Take 10a Trio.wav" WAVE
TRACK 07 AUDIO
TITLE "Take 10a Trio"
PERFORMER "Buckner, Leandre, Mitchell"
FLAGS DCP
INDEX 01 00:00:00
FILE "08 - Take 10b Trio.wav" WAVE
TRACK 08 AUDIO
TITLE "Take 10b Trio"
PERFORMER "Buckner, Leandre, Mitchell"
FLAGS DCP
INDEX 01 00:00:00
FILE "09 - Take 10c Trio.wav" WAVE
TRACK 09 AUDIO
TITLE "Take 10c Trio"
PERFORMER "Buckner, Leandre, Mitchell"
FLAGS DCP
INDEX 01 00:00:00
FILE "10 - Take 11a Trio.wav" WAVE
TRACK 10 AUDIO
TITLE "Take 11a Trio"
PERFORMER "Buckner, Leandre, Mitchell"
FLAGS DCP
INDEX 01 00:00:00
FILE "11 - Take 11b Trio.wav" WAVE
TRACK 11 AUDIO
TITLE "Take 11b Trio"
PERFORMER "Buckner, Leandre, Mitchell"
FLAGS DCP
INDEX 01 00:00:00
FILE "12 - Take 11c Trio.wav" WAVE
TRACK 12 AUDIO
TITLE "Take 11c Trio"
PERFORMER "Buckner, Leandre, Mitchell"
FLAGS DCP
INDEX 01 00:00:00
Доп. информация: Recorded December 8, 2012 at Systems Two Recording Studios, Brooklyn, NY
 
Об альбоме (сборнике)
This CD is the result of the first meeting of Thomas Buckner (voice), Joelle Leandre (bass) and Nicole Mitchell (flute) at New York's Vision Festival in 2012. As Stuart Broomer writes in his liner notes, "Flowing Stream occupies that primal and illuminating musical ground that is most useful, where both our identity springs and where our hearing becomes most acute, where sound, consciousness and survival are invisibly entwined. It is the improvisation of the human community itself." - Leo Records
My first encounter with the voice of Thomas Buckner was New Music for Woodwinds and Voice, (1981on the Arch Records label, S-1785) with Gerald Oshita on Sarrusophone, Conn-o-sax and baritone and with Roscoe Mitchell leading on bass saxophone, E-flat soprano clarinet and tenor saxophone. This was perhaps Mitchell's most audaciously diverse trio and was a very different venture for him to the heady outpourings of the Art Ensemble. He had made his debut for the Association for the Advancement of Creative Musicians (AACM) by recording Sound, one of its most famous recordings. This was intended to exemplify a fresh direction in which sound-as-texture and the association between sound and silence were to be explored. Thomas Buckner had founded the Arch label and became central to the performance of Mitchell's pieces.
Flowing Stream shows Buckner's baritone as flotsam and jetsam of a language appropriated from spiritual sources; magical mumblings, whispers, groans, grunts and sighs, wordless drones and mutterings that become a new language at the heart of improvisation and inventiveness. Both bass and flute apply similar techniques of fragmentation, but their voices are individually expressive as well as cohesive. Leandre's voice also contributes to the vocal dialogue, but I especially like the bowed bass on Track 6: Take 9a Bass and Voice (all tracks are named like that). It is haunting and as true avant garde should be it is fundamental artistic expression, superb in implementation, intention and spirit. This album should encourage all to look for more by these musicians and by Roscoe Mitchell too.
Reviewed by Ken Cheetham
 
Состав
Bass – Joëlle Léandre
Flute – Nicole Mitchell
Voice – Tom Buckner
По всем вопросам пишите личное сообщение пользователю M0p94ok.
09:34
172
Нет комментариев. Ваш будет первым!