Вы используете незарегистрированную версию компонента "Вкладки"!

Поиск

(Avant-Garde Jazz, Free Improvisation, Spool) [CD] Jacques Israelievitch, Reinhard Reitzenstein, Jesse Stewart, Gayle Young - The Test Tubes - 1999, FLAC (tracks+.cue), lossless

(Avant-Garde Jazz, Free Improvisation, Spool) [CD] Jacques Israelievitch, Reinhard Reitzenstein, Jesse Stewart, Gayle Young - The Test Tubes - 1999, FLAC (tracks+.cue), lossless
Треклист:
Jacques Israelievitch, Reinhard Reitzenstein, Jesse Stewart, Gayle Young / The Test Tubes
Жанр: Avant-Garde Jazz, Free Improvisation, Spool
Носитель: CD
Страна-производитель диска (релиза): Canada
Год издания: 1999
Издатель (лейбл): Spool
Номер по каталогу: SPL 106 / LINE 6
Страна исполнителя (группы): International
Аудиокодек: FLAC (*.flac)
Тип рипа: tracks+.cue
Битрейт аудио: lossless
Продолжительность: 00:51:28
Источник (релизер): свой фирменный диск
Наличие сканов в содержимом раздачи:
Треклист:
April 6, 1997
1. The Thermometers 10:55
2. Small Alembic 2:58
3. Test Tubes 14:08
September 4, 1997
4. Under My Skin 10:18
5. Oil Of Cedar 5:19
6. Rose Oil 7:52
 
Лог создания рипа
Exact Audio Copy V1.0 beta 3 from 29. August 2011
EAC extraction logfile from 25. December 2014, 19:43
Jacques Israelieivitch, Reinhard Reitzenstein, Jesse Stewart, Gayle Young / The Test Tubes
Used drive : PIONEER DVD-RW DVR-115D Adapter: 0 ID: 0
Read mode : Secure
Utilize accurate stream : Yes
Defeat audio cache : Yes
Make use of C2 pointers : No
Read offset correction : 48
Overread into Lead-In and Lead-Out : No
Fill up missing offset samples with silence : Yes
Delete leading and trailing silent blocks : No
Null samples used in CRC calculations : Yes
Used interface : Installed external ASPI interface
Gap handling : Appended to previous track
Used output format : User Defined Encoder
Selected bitrate : 768 kBit/s
Quality : High
Add ID3 tag : No
Command line compressor : C:\Program Files\Exact Audio Copy\Flac\flac.exe
Additional command line options : -6 -V -T "ARTIST=%artist%" -T "TITLE=%title%" -T "ALBUM=%albumtitle%" -T "DATE=%year%" -T "TRACKNUMBER=%tracknr%" -T "GENRE=%genre%" -T "COMMENT=%comment%" -T "BAND=%albuminterpret%" -T "COMPOSER=%composer%" %haslyrics%--tag-from-file=LYRICS="%lyricsfile%"%haslyrics% -T "DISCNUMBER=%cdnumber%" -T "TOTALDISCS=%totalcds%" -T "TOTALTRACKS=%numtracks%" %hascover%--picture="%coverfile%"%hascover% %source% -o %dest%
TOC of the extracted CD
Track | Start | Length | Start sector | End sector
---------------------------------------------------------
1 | 0:00.00 | 10:55.18 | 0 | 49142
2 | 10:55.18 | 2:57.47 | 49143 | 62464
3 | 13:52.65 | 14:07.40 | 62465 | 126029
4 | 28:00.30 | 10:17.27 | 126030 | 172331
5 | 38:17.57 | 5:18.45 | 172332 | 196226
6 | 43:36.27 | 7:51.48 | 196227 | 231599
Track 1
Filename D:\zzz\01 - The Thermometers.wav
Pre-gap length 0:00:02.00
Peak level 88.0 %
Extraction speed 5.0 X
Track quality 100.0 %
Test CRC 7E3C60B5
Copy CRC 7E3C60B5
Accurately ripped (confidence 1) [A6793263] (AR v2)
Copy OK
Track 2
Filename D:\zzz\02 - Small Alembic.wav
Peak level 53.0 %
Extraction speed 4.4 X
Track quality 99.9 %
Test CRC 182FF9EC
Copy CRC 182FF9EC
Accurately ripped (confidence 1) [48578231] (AR v2)
Copy OK
Track 3
Filename D:\zzz\03 - Test Tubes.wav
Peak level 90.0 %
Extraction speed 6.6 X
Track quality 100.0 %
Test CRC EFBF2BFD
Copy CRC EFBF2BFD
Accurately ripped (confidence 1) [8505D072] (AR v2)
Copy OK
Track 4
Filename D:\zzz\04 - Under My Skin.wav
Peak level 99.0 %
Extraction speed 7.4 X
Track quality 100.0 %
Test CRC 39176FD7
Copy CRC 39176FD7
Accurately ripped (confidence 1) [0FA6EC3A] (AR v2)
Copy OK
Track 5
Filename D:\zzz\05 - Oil Of Cedar.wav
Peak level 93.3 %
Extraction speed 7.5 X
Track quality 100.0 %
Test CRC 5D36807C
Copy CRC 5D36807C
Accurately ripped (confidence 1) [FA77FE21] (AR v2)
Copy OK
Track 6
Filename D:\zzz\06 - Rose Oil.wav
Peak level 65.3 %
Extraction speed 8.1 X
Track quality 100.0 %
Test CRC 403A5489
Copy CRC 403A5489
Accurately ripped (confidence 1) [E4A57F0E] (AR v2)
Copy OK
All tracks accurately ripped
No errors occurred
End of status report
==== Log checksum 54248B63154730DC40D6A1127BF140D32FFF1D10B5611CA0BA8191C0707F948D ====
 
Содержание индексной карты (.CUE)
REM GENRE "Free Improvisation"
REM DATE 1999
REM DISCID 5B0C1006
REM COMMENT "ExactAudioCopy v1.0b3"
PERFORMER "Jacques Israelieivitch, Reinhard Reitzenstein, Jesse Stewart, Gayle Young"
TITLE "The Test Tubes"
FILE "01 - The Thermometers.wav" WAVE
TRACK 01 AUDIO
TITLE "The Thermometers"
PERFORMER "Jacques Israelieivitch, Reinhard Reitzenstein, Jesse Stewart, Gayle Young"
INDEX 01 00:00:00
FILE "02 - Small Alembic.wav" WAVE
TRACK 02 AUDIO
TITLE "Small Alembic"
PERFORMER "Jacques Israelieivitch, Reinhard Reitzenstein, Jesse Stewart, Gayle Young"
INDEX 01 00:00:00
FILE "03 - Test Tubes.wav" WAVE
TRACK 03 AUDIO
TITLE "Test Tubes"
PERFORMER "Jacques Israelieivitch, Reinhard Reitzenstein, Jesse Stewart, Gayle Young"
INDEX 01 00:00:00
FILE "04 - Under My Skin.wav" WAVE
TRACK 04 AUDIO
TITLE "Under My Skin"
PERFORMER "Jacques Israelieivitch, Reinhard Reitzenstein, Jesse Stewart, Gayle Young"
INDEX 01 00:00:00
FILE "05 - Oil Of Cedar.wav" WAVE
TRACK 05 AUDIO
TITLE "Oil Of Cedar"
PERFORMER "Jacques Israelieivitch, Reinhard Reitzenstein, Jesse Stewart, Gayle Young"
INDEX 01 00:00:00
FILE "06 - Rose Oil.wav" WAVE
TRACK 06 AUDIO
TITLE "Rose Oil"
PERFORMER "Jacques Israelieivitch, Reinhard Reitzenstein, Jesse Stewart, Gayle Young"
INDEX 01 00:00:00
 
Лог проверки качества
d:\>d:\aucdtect -d/-m0 d:\zzz\*.wav
auCDtect: CD records authenticity detector, version 0.8.2
Copyright (c) 2004 Oleg Berngardt. All rights reserved.
Copyright (c) 2004 Alexander Djourik. All rights reserved.
------------------------------------------------------------
Processing file: [01. The Thermometers.wav]
------------------------------------------------------------
Could not qualify the source of this track.
------------------------------------------------------------
Processing file: [02. Small Alembic.wav]
------------------------------------------------------------
Could not qualify the source of this track.
------------------------------------------------------------
Processing file: [03. Test Tubes.wav]
------------------------------------------------------------
Could not qualify the source of this track.
------------------------------------------------------------
Processing file: [04. Under My Skin.wav]
------------------------------------------------------------
This track looks like CDDA with probability 100%
------------------------------------------------------------
Processing file: [05. Oil Of Cedar.wav]
------------------------------------------------------------
This track looks like CDDA with probability 100%
------------------------------------------------------------
Processing file: [06. Rose Oil.wav]
------------------------------------------------------------
This track looks like CDDA with probability 100%
------------------------------------------------------------
Final Conclusion:
------------------------------------------------------------
These tracks looks like CDDA with probability 100%
Доп. информация:
 
Album Info
Recorded at the Macdonald Stewart Art Centre at the University of Guelph, Ontario
Producer and exhibition curator: Judith Nasby
Recording: John Harrison
Mastering: John Gzowski
Design: Reinhard Reitzenstein, Bob Wilcox
Photos: Cheryl O'Brien
Graphic layout: Amy Heggie
Recorded April 6 & September 4, 1997 at the Macdonald Stewart Art Centre at the University of Guelph, Ontario. The performances were part of an exhibition of sculptural work by Reinhard Reitzenstein. The exhibition was in two parts, a sound installation entitled Klang Bau and a sculptural work entitled Wilderness and the Scientific Method consisting of pyrex glass objects referencing laboratory devices. In Klang Bau two large curved wooden resonators are attached to the walls, amplifying attached strings played with fingers or bows. The strings form two-dimensional y-shaped structures which create complex sound combinations.
 
Состав
Jacques Israelievitch: violin
Reinhard Reitzenstein: musician (Klang Bau, Amaranth)
Jesse Stewart: percussionist (glass instruments of his own design, assorted percussion)
Gayle Young: musician/instrument designer (Klang Bau, Amaranth, a 24-stringed instrument of her own design)
По всем вопросам пишите личное сообщение пользователю M0p94ok.
09:35
242
Нет комментариев. Ваш будет первым!