Вы используете незарегистрированную версию компонента "Вкладки"!

Поиск

(Free Improvisation) [CD] Roscoe Mitchell Quartet (Spencer Barefield, Muhal Richard Abrams, George Lewis) - Live at ''A Space'' 1975 - 2013, FLAC (image+.cue), lossless

(Free Improvisation) [CD] Roscoe Mitchell Quartet (Spencer Barefield, Muhal Richard Abrams, George Lewis) - Live at ''A Space'' 1975 - 2013, FLAC (image+.cue), lossless
Треклист:
Roscoe Mitchell Quartet / Live at ''A Space'' 1975
Жанр: Free Improvisation
Носитель: CD
Страна-производитель диска: US
Год издания: 2013
Издатель (лейбл): Delmark / Sackville
Номер по каталогу: 2080
Аудиокодек: FLAC (*.flac)
Тип рипа: image+.cue
Битрейт аудио: lossless
Продолжительность: 63:44
Источник (релизер): CD
Наличие сканов в содержимом раздачи: нет
Треклист:
01. Prelude To Naima
02. Naima
03. Tnoona
04. Music For Trombone & B Flat Soprano
05. Cards
06. Olobo
07. Dastura
08. Nonaah
 
Лог создания рипа
Exact Audio Copy V1.0 beta 2 from 29. April 2011
EAC extraction logfile from 22. January 2014, 11:02
Roscoe Mitchell Quartet / Live at "A Space" 1975
Used drive : Optiarc DVD RW AD-7170A Adapter: 0 ID: 0
Read mode : Secure
Utilize accurate stream : Yes
Defeat audio cache : Yes
Make use of C2 pointers : No
Read offset correction : 48
Overread into Lead-In and Lead-Out : No
Fill up missing offset samples with silence : Yes
Delete leading and trailing silent blocks : No
Null samples used in CRC calculations : Yes
Used interface : Native Win32 interface for Win NT & 2000
Used output format : User Defined Encoder
Selected bitrate : 320 kBit/s
Quality : High
Add ID3 tag : No
Command line compressor : C:\Program Files\Exact Audio Copy\Flac\flac.exe
Additional command line options : -V -8 -T "Date=%year%" -T "Genre=%genre%" %source%
TOC of the extracted CD
Track | Start | Length | Start sector | End sector
---------------------------------------------------------
1 | 0:00.00 | 9:00.08 | 0 | 40507
2 | 9:00.08 | 2:59.27 | 40508 | 53959
3 | 11:59.35 | 7:15.69 | 53960 | 86653
4 | 19:15.29 | 15:10.40 | 86654 | 154943
5 | 34:25.69 | 10:34.12 | 154944 | 202505
6 | 45:00.06 | 10:08.25 | 202506 | 248130
7 | 55:08.31 | 6:09.27 | 248131 | 275832
8 | 61:17.58 | 2:27.17 | 275833 | 286874
Range status and errors
Selected range
Filename K:\ЕАС\Roscoe Mitchell Quartet - Live at ''A Space'' 1975.wav
Peak level 98.8 %
Extraction speed 2.0 X
Range quality 99.9 %
Test CRC 00C3DB93
Copy CRC 00C3DB93
Copy OK
No errors occurred
AccurateRip summary
Track 1 accurately ripped (confidence 2) [306FE6A2] (AR v2)
Track 2 accurately ripped (confidence 2) [F76275D9] (AR v2)
Track 3 accurately ripped (confidence 2) [772DF7BB] (AR v2)
Track 4 accurately ripped (confidence 2) [4356E90E] (AR v2)
Track 5 accurately ripped (confidence 2) [C9EF962D] (AR v2)
Track 6 accurately ripped (confidence 2) [8AFDF955] (AR v2)
Track 7 accurately ripped (confidence 2) [A65F61BE] (AR v2)
Track 8 accurately ripped (confidence 2) [942915E4] (AR v2)
All tracks accurately ripped
End of status report
==== Log checksum 418CDDBEC34FE05C5F9C77B3A9792A8E3260CE8DBECD2F64210C4916433B2AAA ====
 
Содержание индексной карты (.CUE)
REM GENRE Avantgarde
REM DATE 2013
REM DISCID 5F0EF108
REM COMMENT "ExactAudioCopy v1.0b2"
PERFORMER "Roscoe Mitchell Quartet"
TITLE "Live at 'A Space' 1975"
FILE "Roscoe Mitchell Quartet - Live at ''A Space'' 1975.flac" WAVE
TRACK 01 AUDIO
TITLE "Prelude To Naima"
PERFORMER "Roscoe Mitchell Quartet"
ISRC US4B91308001
FLAGS DCP
INDEX 01 00:00:00
TRACK 02 AUDIO
TITLE "Naima"
PERFORMER "Roscoe Mitchell Quartet"
ISRC US4B91308002
FLAGS DCP
INDEX 01 09:00:08
TRACK 03 AUDIO
TITLE "Tnoona"
PERFORMER "Roscoe Mitchell Quartet"
ISRC US4B91308003
FLAGS DCP
INDEX 01 11:59:35
TRACK 04 AUDIO
TITLE "Music For Trombone & B Flat Soprano"
PERFORMER "Roscoe Mitchell Quartet"
ISRC US4B91308004
FLAGS DCP
INDEX 01 19:15:29
TRACK 05 AUDIO
TITLE "Cards"
PERFORMER "Roscoe Mitchell Quartet"
ISRC US4B91308005
FLAGS DCP
INDEX 01 34:25:69
TRACK 06 AUDIO
TITLE "Olobo"
PERFORMER "Roscoe Mitchell Quartet"
ISRC US4B91308006
FLAGS DCP
INDEX 01 45:00:06
TRACK 07 AUDIO
TITLE "Dastura"
PERFORMER "Roscoe Mitchell Quartet"
ISRC US4B91308007
FLAGS DCP
INDEX 01 55:08:31
TRACK 08 AUDIO
TITLE "Nonaah"
PERFORMER "Roscoe Mitchell Quartet"
ISRC US4B91308008
FLAGS DCP
INDEX 01 61:17:58
Доп. информация: Recorded in concert at A Space, Toronto on the 4th and 5th of October 1975.
 
Об альбоме (сборнике)
From the middle of 1970s, each member of Art Ensemble of Chicago (AEOC) started their own activities, as well as AEOC. Lester Bowie and Malachai Favors played music of combining Afro-American root music and free improvisation. Joseph Jarman and Don Moye seeked way to synthesize African ethnic music and improvisation music. The way of Roscoe Mitchell was the more avand-garde manners. He started quest from solo play with his ability as multi-reeds player in music of abstract and modern tastes. Different from other four collegues, his music at that time has very little taste of African or Afro-American.
This live album, issued by Sackville on 1975, is one of the typical ones. The music created by Roscoe and other three musicians is unique which not everyone can accept. But once attracted, this have very strong bind.
 
Состав
Roscoe Mitchell - Alto, Tenor, B♭ Soprano sax
Spencer Barefield - Guitar
Muhal Richard Abrams - Piano
George Lewis - Trombone
Any questions -> support@pro-jazz.com. По всем вопросам пишите -> support@pro-jazz.com
22:44
305
Нет комментариев. Ваш будет первым!