Вы используете незарегистрированную версию компонента "Вкладки"!

Поиск

(avant-garde, free jazz) [CD]Amir ElSaffar - Alchemy (2013), FLAC (tracks+.cue), lossless

(avant-garde, free jazz) [CD]Amir ElSaffar - Alchemy (2013), FLAC (tracks+.cue), lossless
Треклист:


Amir ElSaffar - Alchemy (2013)

Жанр: avant-garde, free jazz
Год выпуска:2013
Издатель (лейбл):Pi Recordings / 51
Формат: FLAC (tracks+.cue)
Битрейт аудио: lossless
Продолжительность 1`09`56
Источник: what.cd, Painkillah

tracks
1 Ishtarum
2 Nid Qablitum
3 Embubum
4 12 Cycles
5 Quartal
6 Balad
7 Five Phases
8 Athar Kurd
9 Miniature #1
10 Ending Piece


 
.log
Exact Audio Copy V1.0 beta 3 from 29. August 2011
EAC extraction logfile from 27. December 2013, 14:34
Amir ElSaffar / Alchemy
Used drive : HL-DT-STDVD+-RW GH50N Adapter: 1 ID: 0
Read mode : Secure
Utilize accurate stream : Yes
Defeat audio cache : Yes
Make use of C2 pointers : No
Read offset correction : 667
Overread into Lead-In and Lead-Out : No
Fill up missing offset samples with silence : Yes
Delete leading and trailing silent blocks : No
Null samples used in CRC calculations : Yes
Used interface : Native Win32 interface for Win NT & 2000
Gap handling : Appended to previous track
Used output format : User Defined Encoder
Selected bitrate : 1024 kBit/s
Quality : High
Add ID3 tag : No
Command line compressor : C:\Program Files (x86)\Exact Audio Copy\Flac\flac.exe
Additional command line options : -8 -V -T "ARTIST=%artist%" -T "TITLE=%title%" -T "ALBUM=%albumtitle%" -T "DATE=%year%" -T "TRACKNUMBER=%tracknr%" -T "GENRE=%genre%" -T "PERFORMER=%albuminterpret%" -T "COMPOSER=%composer%" %haslyrics%--tag-from-file=LYRICS="%lyricsfile%"%haslyrics% -T "ALBUMARTIST=%albumartist%" -T "DISCNUMBER=%cdnumber%" -T "TOTALDISCS=%totalcds%" -T "TOTALTRACKS=%numtracks%" -T "COMMENT=%comment%" %source% -o %dest%
TOC of the extracted CD
Track | Start | Length | Start sector | End sector
---------------------------------------------------------
1 | 0:00.00 | 7:47.59 | 0 | 35083
2 | 7:47.59 | 5:08.18 | 35084 | 58201
3 | 12:56.02 | 10:56.12 | 58202 | 107413
4 | 23:52.14 | 7:07.27 | 107414 | 139465
5 | 30:59.41 | 6:08.26 | 139466 | 167091
6 | 37:07.67 | 4:43.48 | 167092 | 188364
7 | 41:51.40 | 8:08.17 | 188365 | 224981
8 | 49:59.57 | 9:24.54 | 224982 | 267335
9 | 59:24.36 | 2:59.08 | 267336 | 280768
10 | 62:23.44 | 7:32.00 | 280769 | 314668
Track 1
Filename C:\EAC Rips\Amir ElSaffar - Alchemy (2013) [FLAC]\01 - Ishtarum.wav
Pre-gap length 0:00:02.00
Peak level 98.7 %
Extraction speed 1.9 X
Track quality 99.9 %
Test CRC 4A753EF9
Copy CRC 4A753EF9
Accurately ripped (confidence 1) [B9507D1B] (AR v2)
Copy OK
Track 2
Filename C:\EAC Rips\Amir ElSaffar - Alchemy (2013) [FLAC]\02 - Nid Qablitum.wav
Pre-gap length 0:00:02.00
Peak level 97.0 %
Extraction speed 2.3 X
Track quality 100.0 %
Test CRC D0BAF2F5
Copy CRC D0BAF2F5
Accurately ripped (confidence 1) [3B6B347E] (AR v2)
Copy OK
Track 3
Filename C:\EAC Rips\Amir ElSaffar - Alchemy (2013) [FLAC]\03 - Embubum - Ishtarum - Pitum.wav
Pre-gap length 0:00:02.00
Peak level 97.0 %
Extraction speed 2.8 X
Track quality 100.0 %
Test CRC 9D36C81C
Copy CRC 9D36C81C
Accurately ripped (confidence 1) [DE83B703] (AR v2)
Copy OK
Track 4
Filename C:\EAC Rips\Amir ElSaffar - Alchemy (2013) [FLAC]\04 - 12 Cycles.wav
Pre-gap length 0:00:02.00
Peak level 98.8 %
Extraction speed 3.0 X
Track quality 100.0 %
Test CRC 1F49F927
Copy CRC 1F49F927
Accurately ripped (confidence 1) [B3047023] (AR v2)
Copy OK
Track 5
Filename C:\EAC Rips\Amir ElSaffar - Alchemy (2013) [FLAC]\05 - Quartal.wav
Pre-gap length 0:00:02.00
Peak level 96.6 %
Extraction speed 3.1 X
Track quality 100.0 %
Test CRC C9B28326
Copy CRC C9B28326
Accurately ripped (confidence 1) [2B070399] (AR v2)
Copy OK
Track 6
Filename C:\EAC Rips\Amir ElSaffar - Alchemy (2013) [FLAC]\06 - Balad.wav
Pre-gap length 0:00:02.00
Peak level 96.6 %
Extraction speed 3.2 X
Track quality 100.0 %
Test CRC 65011A45
Copy CRC 65011A45
Accurately ripped (confidence 1) [6C5D4A23] (AR v2)
Copy OK
Track 7
Filename C:\EAC Rips\Amir ElSaffar - Alchemy (2013) [FLAC]\07 - Five Phases.wav
Pre-gap length 0:00:02.00
Peak level 96.6 %
Extraction speed 3.5 X
Track quality 100.0 %
Test CRC 7E939EAD
Copy CRC 7E939EAD
Accurately ripped (confidence 1) [34F76BC4] (AR v2)
Copy OK
Track 8
Filename C:\EAC Rips\Amir ElSaffar - Alchemy (2013) [FLAC]\08 - Athar Kurd.wav
Pre-gap length 0:00:02.00
Peak level 96.6 %
Extraction speed 3.6 X
Track quality 99.9 %
Test CRC 60F423B9
Copy CRC 60F423B9
Accurately ripped (confidence 1) [4D4F02DC] (AR v2)
Copy OK
Track 9
Filename C:\EAC Rips\Amir ElSaffar - Alchemy (2013) [FLAC]\09 - Miniature #1.wav
Pre-gap length 0:00:02.00
Peak level 96.6 %
Extraction speed 3.6 X
Track quality 100.0 %
Test CRC 55C81700
Copy CRC 55C81700
Accurately ripped (confidence 1) [27B85AEC] (AR v2)
Copy OK
Track 10
Filename C:\EAC Rips\Amir ElSaffar - Alchemy (2013) [FLAC]\10 - Ending Piece.wav
Pre-gap length 0:00:02.00
Peak level 96.4 %
Extraction speed 4.2 X
Track quality 100.0 %
Test CRC 40D98659
Copy CRC 40D98659
Accurately ripped (confidence 1) [A94A600B] (AR v2)
Copy OK
All tracks accurately ripped
No errors occurred
End of status report
---- CUETools DB Plugin V2.1.3
[CTDB TOCID: kD6o1XkAGnpT6yFYWUy8t3kC.HE-] disk not present in database, Submit result: kD6o1XkAGnpT6yFYWUy8t3kC.HE- has been uploaded
==== Log checksum B00BAC8E51392750AA665F4FDDD27CFF4059B3811B68DE4DFD1DD7E0A8973EBD ====
 
.cue
REM GENRE Jazz
REM DATE 2013
REM DISCID 8C10630A
REM COMMENT "ExactAudioCopy v1.0b3"
PERFORMER "Amir ElSaffar"
TITLE "Alchemy"
FILE "01 - Ishtarum.wav" WAVE
TRACK 01 AUDIO
TITLE "Ishtarum"
PERFORMER "Amir ElSaffar"
ISRC US4S41300047
INDEX 01 00:00:00
TRACK 02 AUDIO
TITLE "Nid Qablitum"
PERFORMER "Amir ElSaffar"
ISRC US4S41300048
INDEX 00 07:45:59
FILE "02 - Nid Qablitum.wav" WAVE
INDEX 01 00:00:00
TRACK 03 AUDIO
TITLE "Embubum - Ishtarum - Pitum"
PERFORMER "Amir ElSaffar"
ISRC US4S41300049
INDEX 00 05:06:18
FILE "03 - Embubum - Ishtarum - Pitum.wav" WAVE
INDEX 01 00:00:00
TRACK 04 AUDIO
TITLE "12 Cycles"
PERFORMER "Amir ElSaffar"
ISRC US4S41300050
INDEX 00 10:54:12
FILE "04 - 12 Cycles.wav" WAVE
INDEX 01 00:00:00
TRACK 05 AUDIO
TITLE "Quartal"
PERFORMER "Amir ElSaffar"
ISRC US4S41300051
INDEX 00 07:05:27
FILE "05 - Quartal.wav" WAVE
INDEX 01 00:00:00
TRACK 06 AUDIO
TITLE "Balad"
PERFORMER "Amir ElSaffar"
ISRC US4S41300052
INDEX 00 06:06:26
FILE "06 - Balad.wav" WAVE
INDEX 01 00:00:00
TRACK 07 AUDIO
TITLE "Five Phases"
PERFORMER "Amir ElSaffar"
ISRC US4S41300053
INDEX 00 04:41:48
FILE "07 - Five Phases.wav" WAVE
INDEX 01 00:00:00
TRACK 08 AUDIO
TITLE "Athar Kurd"
PERFORMER "Amir ElSaffar"
ISRC US4S41300054
INDEX 00 08:06:17
FILE "08 - Athar Kurd.wav" WAVE
INDEX 01 00:00:00
TRACK 09 AUDIO
TITLE "Miniature #1"
PERFORMER "Amir ElSaffar"
ISRC US4S41300055
INDEX 00 09:22:54
FILE "09 - Miniature #1.wav" WAVE
INDEX 01 00:00:00
TRACK 10 AUDIO
TITLE "Ending Piece"
PERFORMER "Amir ElSaffar"
ISRC US4S41300056
INDEX 00 02:57:08
FILE "10 - Ending Piece.wav" WAVE
INDEX 01 00:00:00

другие релизы
Any questions -> support@pro-jazz.com. По всем вопросам пишите -> support@pro-jazz.com
22:45
217
Нет комментариев. Ваш будет первым!