Вы используете незарегистрированную версию компонента "Вкладки"!

Поиск

(free jazz) [CD] Oliver Lake - NTU: The Point From Wich Creation Begins (1971, Universal Sound), FLAC (tracks+.cue), lossless

(free jazz) [CD] Oliver Lake - NTU: The Point From Wich Creation Begins (1971, Universal Sound), FLAC (tracks+.cue), lossless
Треклист:


Oliver Lake - NTU: The Point From Wich Creation Begins

Жанр: free jazz
Год выпуска: 1971
Издатель (лейбл):2012/ Universal Sound ‎– US CD41
Формат: FLAC (tracks+.cue)
Битрейт аудио: lossless
Продолжительность 35`48
Источник: what.cd
Alto Saxophone, Soprano Saxophone, Flute – Oliver Lake
Congas – Don Moye*
Drums – Charles Bobo Shaw
Electric Bass – Don Officer
Electric Piano – Clovis Bordeux
Guitar – Richard Martin (3)
Instruments [Small Instruments] – Baikida E. J. Carroll*, Floyd LeFlore, Joseph Bowie, Oliver Lake
Piano – John Hicks
Trombone – Joseph Bowie
Trumpet – Baikida E. J. Carroll*, Floyd LeFlore

tracks
1 Africa 12:57
2 Tse'lane 5:55
3 Electric Freedom Colors 6:24
4 Eriee 7:40
5 Zip 4:40


 
.log
Exact Audio Copy V1.0 beta 3 from 29. August 2011
EAC extraction logfile from 31. May 2013, 22:15
Oliver Lake / NTU:Point From Which Creation Begins
Used drive : HL-DT-STDVDRAM GU10N Adapter: 0 ID: 1
Read mode : Secure
Utilize accurate stream : Yes
Defeat audio cache : Yes
Make use of C2 pointers : No
Read offset correction : 667
Overread into Lead-In and Lead-Out : No
Fill up missing offset samples with silence : Yes
Delete leading and trailing silent blocks : No
Null samples used in CRC calculations : Yes
Used interface : Native Win32 interface for Win NT & 2000
Gap handling : Appended to previous track
Used output format : User Defined Encoder
Selected bitrate : 1024 kBit/s
Quality : High
Add ID3 tag : No
Command line compressor : C:\Program Files (x86)\FLAC\flac.exe
Additional command line options : -8 -V -T "ARTIST=%artist%" -T "TITLE=%title%" -T "ALBUM=%albumtitle%" -T "DATE=%year%" -T "TRACKNUMBER=%tracknr%" -T "GENRE=%genre%" -T "PERFORMER=%albuminterpret%" -T "COMPOSER=%composer%" %haslyrics%--tag-from-file=LYRICS="%lyricsfile%"%haslyrics% -T "ALBUMARTIST=%albumartist%" -T "DISCNUMBER=%cdnumber%" -T "TOTALDISCS=%totalcds%" -T "TOTALTRACKS=%numtracks%" -T "COMMENT=%comment%" %source% -o %dest%
TOC of the extracted CD
Track | Start | Length | Start sector | End sector
---------------------------------------------------------
1 | 0:00.00 | 10:51.20 | 0 | 48844
2 | 10:51.20 | 5:58.09 | 48845 | 75703
3 | 16:49.29 | 6:33.58 | 75704 | 105236
4 | 23:23.12 | 7:49.48 | 105237 | 140459
5 | 31:12.60 | 4:35.47 | 140460 | 161131
Track 1
Filename C:\EAC Rips\Oliver Lake - NTU - The Point From Wich Creation Begins (1971, Universal Sound) [FLAC]\01 - Africa.wav
Pre-gap length 0:00:02.00
Peak level 91.6 %
Extraction speed 2.8 X
Track quality 100.0 %
Test CRC 06284415
Copy CRC 06284415
Track not present in AccurateRip database
Copy OK
Track 2
Filename C:\EAC Rips\Oliver Lake - NTU - The Point From Wich Creation Begins (1971, Universal Sound) [FLAC]\02 - Tse'lane.wav
Pre-gap length 0:00:03.54
Peak level 89.7 %
Extraction speed 3.2 X
Track quality 100.0 %
Test CRC 59FB5C55
Copy CRC 59FB5C55
Track not present in AccurateRip database
Copy OK
Track 3
Filename C:\EAC Rips\Oliver Lake - NTU - The Point From Wich Creation Begins (1971, Universal Sound) [FLAC]\03 - Electric Freedom Colors.wav
Pre-gap length 0:00:03.22
Peak level 95.9 %
Extraction speed 3.5 X
Track quality 100.0 %
Test CRC 602F3065
Copy CRC 602F3065
Track not present in AccurateRip database
Copy OK
Track 4
Filename C:\EAC Rips\Oliver Lake - NTU - The Point From Wich Creation Begins (1971, Universal Sound) [FLAC]\04 - Eriee.wav
Pre-gap length 0:00:01.89
Peak level 96.1 %
Extraction speed 3.9 X
Track quality 100.0 %
Test CRC 6BE9F912
Copy CRC 6BE9F912
Track not present in AccurateRip database
Copy OK
Track 5
Filename C:\EAC Rips\Oliver Lake - NTU - The Point From Wich Creation Begins (1971, Universal Sound) [FLAC]\05 - Zip.wav
Pre-gap length 0:00:03.98
Peak level 92.8 %
Extraction speed 4.0 X
Track quality 100.0 %
Test CRC D0E27E87
Copy CRC D0E27E87
Track not present in AccurateRip database
Copy OK
None of the tracks are present in the AccurateRip database
No errors occurred
End of status report
---- CUETools DB Plugin V2.1.3
[CTDB TOCID: oNoiKaD2YfQ_OU4Yvp9cTrZYNGY-] disk not present in database, Submit result: database access error: La demande a été abandonnée : La demande a été annulée.
==== Log checksum 4F3A53F31E793A2CC8E8B77A25AB57DE8FC5A7E9C25D8CC3C7F4E795F8F80087 ====
 
.cue
REM GENRE Jazz
REM DATE 1971
REM DISCID 31086405
REM COMMENT "ExactAudioCopy v1.0b3"
PERFORMER "Oliver Lake"
TITLE "NTU: Point From Which Creation Begins"
FILE "01 - Africa.wav" WAVE
TRACK 01 AUDIO
TITLE "Africa"
PERFORMER "Oliver Lake"
INDEX 01 00:00:00
TRACK 02 AUDIO
TITLE "Tse'lane"
PERFORMER "Oliver Lake"
INDEX 00 10:47:54
FILE "02 - Tse'lane.wav" WAVE
INDEX 01 00:00:00
TRACK 03 AUDIO
TITLE "Electric Freedom Colors"
PERFORMER "Oliver Lake"
INDEX 00 05:54:67
FILE "03 - Electric Freedom Colors.wav" WAVE
INDEX 01 00:00:00
TRACK 04 AUDIO
TITLE "Eriee"
PERFORMER "Oliver Lake"
INDEX 00 06:31:66
FILE "04 - Eriee.wav" WAVE
INDEX 01 00:00:00
TRACK 05 AUDIO
TITLE "Zip"
PERFORMER "Oliver Lake"
INDEX 00 07:45:49
FILE "05 - Zip.wav" WAVE
INDEX 01 00:00:00
 
.accurip
[CUETools log; Date: 23/01/14 11:23:00; Version: 2.1.4]
[CTDB TOCID: oNoiKaD2YfQ_OU4Yvp9cTrZYNGY-] found.
Track | CTDB Status
1 | (1/1) Accurately ripped
2 | (1/1) Accurately ripped
3 | (1/1) Accurately ripped
4 | (1/1) Accurately ripped
5 | (1/1) Accurately ripped
[AccurateRip ID: 00081bb2-0024d8fb-31086405] disk not present in database.
Track Peak [ CRC32 ] [W/O NULL] [ LOG ]
-- 96.1 [AC713363] [31DA6265]
01 91.6 [06284415] [9AD339CE] CRC32
02 89.7 [59FB5C55] [E404D23E] CRC32
03 95.9 [602F3065] [B489C2D0] CRC32
04 96.1 [6BE9F912] [D3425224] CRC32
05 92.8 [D0E27E87] [25517541] CRC32

другие релизы
По всем вопросам пишите личное сообщение пользователю M0p94ok.
22:45
210
Нет комментариев. Ваш будет первым!