Вы используете незарегистрированную версию компонента "Вкладки"!

Поиск

(Avant-Garde Jazz, Free Jazz) [CD] Andrea Centazzo, Lol Coxhill, Franz Koglmann, Giancarlo Schiaffini - Situations - 2000, FLAC (tracks+.cue), lossless

(Avant-Garde Jazz, Free Jazz) [CD] Andrea Centazzo, Lol Coxhill, Franz Koglmann, Giancarlo Schiaffini - Situations - 2000, FLAC (tracks+.cue), lossless
Треклист:
Andrea Centazzo, Lol Coxhill, Franz Koglmann, Giancarlo Schiaffini / Situations
Жанр: Avant-Garde Jazz, Free Jazz
Носитель: CD
Страна-производитель диска: Italy
Год издания: 2000
Издатель (лейбл): New Tone Records
Номер по каталогу: rdc 5046 2
Аудиокодек: FLAC (*.flac)
Тип рипа: tracks+.cue
Битрейт аудио: lossless
Продолжительность: 52:59
Источник (релизер): gssmg7
Наличие сканов в содержимом раздачи: да
Треклист:
01-07. Situations:
01. I (8:14)
02. II (8:16)
03. III (1:53)
04. IV (2:16)
05. V (8:03)
06. VI (5:11)
07. VII (5:46)
-
08. Moot # 2 (2:57)
09. Moot # 3 (4:14)
10. Moot # 4 (4:45)
11. Moot # 5 (1:23)
 
Лог создания рипа
Exact Audio Copy V1.0 beta 2 from 29. April 2011
EAC extraction logfile from 20. January 2014, 21:01
Centazzo, Coxhill, Koglmann, Schiaffini / Situations
Used drive : Optiarc DVD RW AD-5280S Adapter: 1 ID: 1
Read mode : Secure
Utilize accurate stream : Yes
Defeat audio cache : Yes
Make use of C2 pointers : No
Read offset correction : 48
Overread into Lead-In and Lead-Out : No
Fill up missing offset samples with silence : Yes
Delete leading and trailing silent blocks : No
Null samples used in CRC calculations : Yes
Used interface : Installed external ASPI interface
Gap handling : Appended to previous track
Used output format : User Defined Encoder
Selected bitrate : 128 kBit/s
Quality : High
Add ID3 tag : No
Command line compressor : C:\Program Files\FLAC\flac.exe
Additional command line options : -V -8 -T "Genre=%genre%" -T "Artist=%artist%" -T "Title=%title%" -T "Album=%albumtitle%" -T "Date=%year%" -T "Tracknumber=%tracknr%" -T "Comment=%comment%" %source%
TOC of the extracted CD
Track | Start | Length | Start sector | End sector
---------------------------------------------------------
1 | 0:00.00 | 8:17.22 | 0 | 37296
2 | 8:17.22 | 8:24.38 | 37297 | 75134
3 | 16:41.60 | 1:59.67 | 75135 | 84126
4 | 18:41.52 | 2:13.45 | 84127 | 94146
5 | 20:55.22 | 8:13.10 | 94147 | 131131
6 | 29:08.32 | 5:13.43 | 131132 | 154649
7 | 34:22.00 | 5:47.65 | 154650 | 180739
8 | 40:09.65 | 2:59.42 | 180740 | 194206
9 | 43:09.32 | 4:15.60 | 194207 | 213391
10 | 47:25.17 | 4:50.10 | 213392 | 235151
11 | 52:15.27 | 1:20.15 | 235152 | 241166
Track 1
Filename C:\Centazzo, Coxhill, Koglmann, Schiaffini (2000) - Situations\01 - I.wav
Pre-gap length 0:00:02.00
Peak level 99.9 %
Extraction speed 2.7 X
Track quality 100.0 %
Test CRC 2FB948AA
Copy CRC 2FB948AA
Track not present in AccurateRip database
Copy OK
Track 2
Filename C:\Centazzo, Coxhill, Koglmann, Schiaffini (2000) - Situations\02 - II.wav
Pre-gap length 0:00:03.42
Peak level 97.6 %
Extraction speed 3.2 X
Track quality 100.0 %
Test CRC A7E2DF8A
Copy CRC A7E2DF8A
Track not present in AccurateRip database
Copy OK
Track 3
Filename C:\Centazzo, Coxhill, Koglmann, Schiaffini (2000) - Situations\03 - III.wav
Pre-gap length 0:00:03.45
Peak level 86.6 %
Extraction speed 2.8 X
Track quality 100.0 %
Test CRC B1E29C65
Copy CRC B1E29C65
Track not present in AccurateRip database
Copy OK
Track 4
Filename C:\Centazzo, Coxhill, Koglmann, Schiaffini (2000) - Situations\04 - IV.wav
Pre-gap length 0:00:03.45
Peak level 81.6 %
Extraction speed 3.0 X
Track quality 100.0 %
Test CRC C5BC0B71
Copy CRC C5BC0B71
Track not present in AccurateRip database
Copy OK
Track 5
Filename C:\Centazzo, Coxhill, Koglmann, Schiaffini (2000) - Situations\05 - V.wav
Pre-gap length 0:00:03.47
Peak level 99.9 %
Extraction speed 3.8 X
Track quality 100.0 %
Test CRC C39CE702
Copy CRC C39CE702
Track not present in AccurateRip database
Copy OK
Track 6
Filename C:\Centazzo, Coxhill, Koglmann, Schiaffini (2000) - Situations\06 - VI.wav
Pre-gap length 0:00:03.45
Peak level 85.8 %
Extraction speed 4.0 X
Track quality 100.0 %
Test CRC F053AADE
Copy CRC F053AADE
Track not present in AccurateRip database
Copy OK
Track 7
Filename C:\Centazzo, Coxhill, Koglmann, Schiaffini (2000) - Situations\07 - VII.wav
Pre-gap length 0:00:03.48
Peak level 92.7 %
Extraction speed 4.3 X
Track quality 100.0 %
Test CRC FB4B4D72
Copy CRC FB4B4D72
Track not present in AccurateRip database
Copy OK
Track 8
Filename C:\Centazzo, Coxhill, Koglmann, Schiaffini (2000) - Situations\08 - moot # 2.wav
Pre-gap length 0:00:03.43
Peak level 58.7 %
Extraction speed 4.1 X
Track quality 100.0 %
Test CRC 2B97A152
Copy CRC 2B97A152
Track not present in AccurateRip database
Copy OK
Track 9
Filename C:\Centazzo, Coxhill, Koglmann, Schiaffini (2000) - Situations\09 - moot # 3.wav
Pre-gap length 0:00:03.42
Peak level 84.5 %
Extraction speed 4.4 X
Track quality 100.0 %
Test CRC D65AE289
Copy CRC D65AE289
Track not present in AccurateRip database
Copy OK
Track 10
Filename C:\Centazzo, Coxhill, Koglmann, Schiaffini (2000) - Situations\10 - moot # 4.wav
Pre-gap length 0:00:03.45
Peak level 97.7 %
Extraction speed 4.2 X
Track quality 99.9 %
Test CRC CC1B885D
Copy CRC CC1B885D
Track not present in AccurateRip database
Copy OK
Track 11
Filename C:\Centazzo, Coxhill, Koglmann, Schiaffini (2000) - Situations\11 - moot # 5.wav
Pre-gap length 0:00:03.42
Peak level 97.5 %
Extraction speed 3.6 X
Track quality 100.0 %
Test CRC 478F18A3
Copy CRC 478F18A3
Track not present in AccurateRip database
Copy OK
None of the tracks are present in the AccurateRip database
No errors occurred
End of status report
==== Log checksum C2FE5C1214C99F20DB052D65227967D82AC0BC3FD61ADD85F6F56E18C6308398 ====
 
Содержание индексной карты (.CUE)
REM GENRE Jazz
REM DATE 2000
REM DISCID 870C8F0B
REM COMMENT "ExactAudioCopy v1.0b2"
PERFORMER "Centazzo, Coxhill, Koglmann, Schiaffini"
TITLE "Situations"
FILE "01 - I.wav" WAVE
TRACK 01 AUDIO
TITLE "I"
PERFORMER "Centazzo, Coxhill, Koglmann, Schiaffini"
INDEX 01 00:00:00
TRACK 02 AUDIO
TITLE "II"
PERFORMER "Centazzo, Coxhill, Koglmann, Schiaffini"
INDEX 00 08:13:55
FILE "02 - II.wav" WAVE
INDEX 01 00:00:00
TRACK 03 AUDIO
TITLE "III"
PERFORMER "Centazzo, Coxhill, Koglmann, Schiaffini"
INDEX 00 08:20:68
FILE "03 - III.wav" WAVE
INDEX 01 00:00:00
TRACK 04 AUDIO
TITLE "IV"
PERFORMER "Centazzo, Coxhill, Koglmann, Schiaffini"
INDEX 00 01:56:22
FILE "04 - IV.wav" WAVE
INDEX 01 00:00:00
TRACK 05 AUDIO
TITLE "V"
PERFORMER "Centazzo, Coxhill, Koglmann, Schiaffini"
INDEX 00 02:09:73
FILE "05 - V.wav" WAVE
INDEX 01 00:00:00
TRACK 06 AUDIO
TITLE "VI"
PERFORMER "Centazzo, Coxhill, Koglmann, Schiaffini"
INDEX 00 08:09:40
FILE "06 - VI.wav" WAVE
INDEX 01 00:00:00
TRACK 07 AUDIO
TITLE "VII"
PERFORMER "Centazzo, Coxhill, Koglmann, Schiaffini"
INDEX 00 05:09:70
FILE "07 - VII.wav" WAVE
INDEX 01 00:00:00
TRACK 08 AUDIO
TITLE "moot # 2"
PERFORMER "Centazzo, Coxhill, Koglmann, Schiaffini"
INDEX 00 05:44:22
FILE "08 - moot # 2.wav" WAVE
INDEX 01 00:00:00
TRACK 09 AUDIO
TITLE "moot # 3"
PERFORMER "Centazzo, Coxhill, Koglmann, Schiaffini"
INDEX 00 02:56:00
FILE "09 - moot # 3.wav" WAVE
INDEX 01 00:00:00
TRACK 10 AUDIO
TITLE "moot # 4"
PERFORMER "Centazzo, Coxhill, Koglmann, Schiaffini"
INDEX 00 04:12:15
FILE "10 - moot # 4.wav" WAVE
INDEX 01 00:00:00
TRACK 11 AUDIO
TITLE "moot # 5"
PERFORMER "Centazzo, Coxhill, Koglmann, Schiaffini"
INDEX 00 04:46:43
FILE "11 - moot # 5.wav" WAVE
INDEX 01 00:00:00
 
Доп. информация
Tracks 1 to 7 recorded & mixed in Bologna, Italy, June 1982; previously unissued
Tracks 8 to 11 recorded & mixed in Pistoia, July - September 1978; originally released as "Moot" - ictus 008
 
Об исполнителе (группе)
In an artistic career that spans over twentyfive years, Andrea Centazzo has given more than 1000 concerts and live performances in Europe and the United States, as well as having appeared and performed on numerous radio and television broadcasts. He has recorded over 60 LP's and CD's, and has authored 350 compositions and eight musicology books. His musical endeavors and creative expression range from the sublime to the passionate, from lyric opera to orchestral symphony and solo percussion. He has performed in momentous festivals as soloist of his own compositions or as conductor of symphonic orchestras. Centazzo is a pioneer of contemporary percussion. In the early years, he performed with some of the greatest avant-garde soloists and composers, including J. Zorn, S. Bussotti, S. Lacy, D. Cherry, A. Mangellsdorf, E. Parker, etc. Deservedly, Centazzo has received a number of prestigious music and video Awards (Premio Speciale della Critica Discografica Italiana, USA Downbeat Poll, International Video Festival Tokyo, Prix Arcanal of French Culture, etc.) A doctoral graduate in musicology, he has taught seminars and workshops in Europe and the USA. Since 1983, Centazzo has been dedicated to creating multi-media experiences. This expansion began with an exhibition of his scores rendered as painted ideograms, and evolved into video performances combining both live performance with video images. These efforts culminated in his directing award-winning videos and films. As a soundtrack composer, he unites traditional instrumentation with current technological advances in musical expression through sampling machines and computers. These efforts give a new perspective to the fusion of sound and image through his theatre, television, video, CD rom, and feature film scores. The music of A.C. captures and expresses the rhythm and pulse of life by synthesizing the mystery of Oriental percussive vibrations with the timbral harmonic understanding of contemporary music and the soul of jazz and rock post-culture. A.C. continues to contribute his unique artistic vision to the evolution of contemporary culture.
http://www.andreacentazzo.com/
 
Об альбоме (сборнике)
Situations represents material culled from the archives of percussionist Andrea Centazzo's old 'ICTUS' label. The previously unreleased tracks, titled 'Situations: 'I-VII', were recorded in 1982, featuring trumpeter/flugelhornist Franz Koglmann, soprano saxophonist Lol Coxhill and Centazzo as this multinational aggregation of modern jazz/improvising superstars pursue a subdued search and destroy musician via supple dialogue and animated call and response digressions. With these pieces, the instrumentalists delve into softly stated themes of an often-climactic nature. Soprano saxophonist Lol Coxhill's spiraling, extended notes on the piece simply titled, 'II' emits a surreal or perhaps liquefying effect as few will debate his now historic significance within this genre. Yet Centazzo's daintily executed polyrhythms and multihued textures on 'V', provides Koglmann and Coxhill with a launching pad for yearning lines and the soloist's introspective dialogue. The works titled, 'Moot # 2' through 'Moot # 5' were originally recorded and issued in 1978 on the 'ICTUS' LP titled, Moot. These pieces feature Centazzo and Coxhill performing with trombonist Giancarlo Schiaffini for a series of improvisations that are marked by linear passages and fervent three-way dialogue enhanced by Centazzo's crisp percussion statements and resplendent cymbal work. No doubt, Situations is a noteworthy entry into the annals of the oft fabled Euro-Jazz improvisational scene. ~ glenn astarita, allaboutjazz.com
Two groups perform here, the first (represented on seven tracks) is from a fascinating session with Italian percussionist Andrea Centazzo, Austrian trumpeter Franz Koglmann, and British soprano saxophonist Lol Coxhill, and the second (on four cuts) has Italian trombonist Giancarlo Schiaffini replacing Koglmann. The numbers with Schiaffini were released previously on the Ictus label as an LP entitled Moot. The primary interest is the rare combination of Coxhill with Schiaffini and Koglmann. All the pieces appear freely improvised, although credits are given to compositions by Centazzo. While there is a tendency to drift, particularly on the Koglmann cuts, Centazzo pulls it together with some very exciting, though subtle, demonstrations. Koglmann and Schiaffini are both deliberate performers, although the trombonist ups the ante with some of his well-known rapid-fire attacks that mesh well with Coxhill's approach. Due to the small number of players and the absence of piano and bass, there is plenty of room for individual expression that should please admirers of all of these under-recorded giants of the international free jazz scene. ~ steve loewy, allmusic.com
Document of the meeting between percussionist Andrea Centazzo and English sax player Coxhill, Situations is much more that a simple reissue; it contains 7 unissued tracks. In these bonus-tracks Centazzo and Coxhill are teamed by the Austrian trumpet player Franz Koglmann, an important on the improvised music scene, unfortunately his talent is not always recognized. Following very long tour in all Europe the trio goes in studio, in 1982, with a very strong unity and clear ideas. The result is a mix of different styles, from pure improvised sounds to imaginary soundtrack, from echoes of marching and brass bands to pop quotations, without forgetting moments evoking Mittleurope, not the real but an imaginary one. To create this music puzzle the trio, always very comfortable in all the contests, collaborate with all his elements, the atmosphere created by the three performers are very intense, fresh and original even today, twenty years later. In this contest, with a very large amount of freedom for each member of the group, Coxhill and Koglmann demonstrates ideal companions of the Italian percussionist. Coxhill, in particular is able to fully display all the wide range of his art: his strong irony that can mutate in cold, frozen calmness or viceversa in the space of a second, without being overwhelmed by useless virtuosity. In the second part of the CD Franz Koglmann is replaced by trombone player Giancarlo Schiaffini. The recordings of this second trio were done earlier, in 1978, and the sound of the group is quite different. The presence of Schiaffini, a very talented and expert artist, always in the middle between jazz and the more experimental territories of the avant-garde European contemporary music changes radically the sound, now more sharp and corrosive, pervaded by a constant tension. The trio now flies over a ever changing sea of sounds, a never ending tension for the listeners whose attention must be at the maximum level. The three musicians are very concentrated and inspired always attentive to pick up the other's intuitions. Situations all together is a precious re-discovery and a confirmation of the importance of the Italian musicians in the creative music scene between the 70's and 80's. ~ felmay.it
 
Состав
Tracks 1-7:
Franz Koglmann - trumpet, flugelhorn
Lol Coxhill - soprano sax
Andrea Centazzo - percussion
Tracks 8-11:
Giancarlo Schiaffini - trombone
Lol Coxhill - soprano sax
Andrea Centazzo - percussion
По всем вопросам пишите личное сообщение пользователю M0p94ok.
22:43
364
Нет комментариев. Ваш будет первым!