Вы используете незарегистрированную версию компонента "Вкладки"!

Поиск

(Free Improvisation) [CD] Guillermo Gregorio, Pandelis Karayorgis, Steve Swell - Window And Doorway - 2013, FLAC (image+.cue), lossless

Треклист:
Guillermo Gregorio, Pandelis Karayorgis, Steve Swell / Window And Doorway
Жанр: Free Improvisation
Носитель: CD
Страна-производитель диска: US
Год издания: 2013
Издатель (лейбл): Driff Records
Номер по каталогу: CD1301
Аудиокодек: FLAC (*.flac)
Тип рипа: image+.cue
Битрейт аудио: lossless
Продолжительность: 52:05
Источник (релизер): CD
Наличие сканов в содержимом раздачи: нет
Треклист:
1 Texture 5 9:29
2 Hazy Recall 3:52
3 Window And Doorway 3:11
4 Lifgatowy 6:48
5 Coplanar 1+2 3:48
6 Curves And Angles 4:20
7 Planimetria 3:08
8 In The Cracks Of Four 4:12
9 Thinly Veiled 3:53
10 Summer 3:45
11 Nu Blu 5:34
 
Лог создания рипа
Exact Audio Copy V1.0 beta 2 from 29. April 2011
EAC extraction logfile from 18. July 2014, 14:14
Guillermo Gregorio, Pandelis Karayorgis, Steve Swell / Window And Doorway
Used drive : Optiarc DVD RW AD-7170A Adapter: 0 ID: 0
Read mode : Secure
Utilize accurate stream : Yes
Defeat audio cache : Yes
Make use of C2 pointers : No
Read offset correction : 48
Overread into Lead-In and Lead-Out : No
Fill up missing offset samples with silence : Yes
Delete leading and trailing silent blocks : No
Null samples used in CRC calculations : Yes
Used interface : Native Win32 interface for Win NT & 2000
Used output format : User Defined Encoder
Selected bitrate : 320 kBit/s
Quality : High
Add ID3 tag : No
Command line compressor : C:\Program Files\Exact Audio Copy\Flac\flac.exe
Additional command line options : -V -8 -T "Date=%year%" -T "Genre=%genre%" %source%
TOC of the extracted CD
Track | Start | Length | Start sector | End sector
---------------------------------------------------------
1 | 0:00.00 | 9:29.67 | 0 | 42741
2 | 9:29.67 | 3:52.40 | 42742 | 60181
3 | 13:22.32 | 3:11.36 | 60182 | 74542
4 | 16:33.68 | 6:48.12 | 74543 | 105154
5 | 23:22.05 | 3:48.64 | 105155 | 122318
6 | 27:10.69 | 4:20.27 | 122319 | 141845
7 | 31:31.21 | 3:08.73 | 141846 | 156018
8 | 34:40.19 | 4:12.48 | 156019 | 174966
9 | 38:52.67 | 3:53.14 | 174967 | 192455
10 | 42:46.06 | 3:45.03 | 192456 | 209333
11 | 46:31.09 | 5:34.30 | 209334 | 234413
Range status and errors
Selected range
Filename K:\ЕАС\Guillermo Gregorio, Pandelis Karayorgis, Steve Swell - Window And Doorway.wav
Peak level 96.6 %
Extraction speed 1.9 X
Range quality 99.9 %
Test CRC E59DA999
Copy CRC E59DA999
Copy OK
No errors occurred
AccurateRip summary
Track 1 not present in database
Track 2 not present in database
Track 3 not present in database
Track 4 not present in database
Track 5 not present in database
Track 6 not present in database
Track 7 not present in database
Track 8 not present in database
Track 9 not present in database
Track 10 not present in database
Track 11 not present in database
None of the tracks are present in the AccurateRip database
End of status report
==== Log checksum 8526A06E228771186E37E7DA337617EDE237699E7D4FAD574CCA8CFE613B9008 ====
 
Содержание индексной карты (.CUE)
REM GENRE Jazz
REM DATE 2013
REM DISCID 9E0C350B
REM COMMENT "ExactAudioCopy v1.0b2"
PERFORMER "Guillermo Gregorio, Pandelis Karayorgis, Steve Swell"
TITLE "Window And Doorway "
FILE "Guillermo Gregorio, Pandelis Karayorgis, Steve Swell - Window And Doorway.flac" WAVE
TRACK 01 AUDIO
TITLE "Texture 5"
PERFORMER "Guillermo Gregorio, Pandelis Karayorgis, Steve Swell"
FLAGS DCP
INDEX 01 00:00:00
TRACK 02 AUDIO
TITLE "Hazy Recall"
PERFORMER "Guillermo Gregorio, Pandelis Karayorgis, Steve Swell"
FLAGS DCP
INDEX 01 09:29:67
TRACK 03 AUDIO
TITLE "Window And Doorway"
PERFORMER "Guillermo Gregorio, Pandelis Karayorgis, Steve Swell"
FLAGS DCP
INDEX 01 13:22:32
TRACK 04 AUDIO
TITLE "Lifgatowy"
PERFORMER "Guillermo Gregorio, Pandelis Karayorgis, Steve Swell"
FLAGS DCP
INDEX 01 16:33:68
TRACK 05 AUDIO
TITLE "Coplanar 1+2"
PERFORMER "Guillermo Gregorio, Pandelis Karayorgis, Steve Swell"
FLAGS DCP
INDEX 01 23:22:05
TRACK 06 AUDIO
TITLE "Curves And Angles"
PERFORMER "Guillermo Gregorio, Pandelis Karayorgis, Steve Swell"
FLAGS DCP
INDEX 01 27:10:69
TRACK 07 AUDIO
TITLE "Planimetria"
PERFORMER "Guillermo Gregorio, Pandelis Karayorgis, Steve Swell"
FLAGS DCP
INDEX 01 31:31:21
TRACK 08 AUDIO
TITLE "In The Cracks Of Four"
PERFORMER "Guillermo Gregorio, Pandelis Karayorgis, Steve Swell"
FLAGS DCP
INDEX 01 34:40:19
TRACK 09 AUDIO
TITLE "Thinly Veiled"
PERFORMER "Guillermo Gregorio, Pandelis Karayorgis, Steve Swell"
FLAGS DCP
INDEX 01 38:52:67
TRACK 10 AUDIO
TITLE "Summer"
PERFORMER "Guillermo Gregorio, Pandelis Karayorgis, Steve Swell"
FLAGS DCP
INDEX 01 42:46:06
TRACK 11 AUDIO
TITLE "Nu Blu"
PERFORMER "Guillermo Gregorio, Pandelis Karayorgis, Steve Swell"
FLAGS DCP
INDEX 01 46:31:09
Доп. информация: Recorded at Firehouse 12, New Haven, CT on June 9, 2011
 
Состав
Clarinet – Guillermo Gregorio
Piano – Pandelis Karayorgis
Trombone – Steve Swell
По всем вопросам пишите личное сообщение пользователю M0p94ok.
03:30
125
Нет комментариев. Ваш будет первым!