Поиск

(Free Improvisation) [CD] Carl Ludwig Hubsch's Longrun Development Of The Universe (Matthias Schubert, Wolter Wierbos, Gerry Hemingway) - The Creators Bend A Master Plan - 2010, FLAC (image+.cue), lossless

(Free Improvisation) [CD] Carl Ludwig Hubsch's Longrun Development Of The Universe (Matthias Schubert, Wolter Wierbos, Gerry Hemingway) - The Creators Bend A Master Plan - 2010, FLAC (image+.cue), lossless
Carl Ludwig Hübsch's Longrun Development Of The Universe / The Creators Bend A Master Plan
Жанр: Free Improvisation
Носитель: CD
Страна-производитель диска: Germany
Год издания: 2010
Издатель (лейбл): NEOS JAZZ
Номер по каталогу: NEOS 41003
Аудиокодек: FLAC (*.flac)
Тип рипа: image+.cue
Битрейт аудио: lossless
Продолжительность: 65:13
Источник (релизер): CD
Наличие сканов в содержимом раздачи: нет
Треклист:
1 Lumière 8:31
2 Not Even 8:35
3 Three Pinups 9:35
4 Orbiting 5:12
5 Module Modulations 32:09
 
Лог создания рипа
Exact Audio Copy V1.0 beta 2 from 29. April 2011
EAC extraction logfile from 18. July 2014, 15:59
Carl Ludwig Hubsch / The creators bend a master plan
Used drive : Optiarc DVD RW AD-7170A Adapter: 0 ID: 0
Read mode : Secure
Utilize accurate stream : Yes
Defeat audio cache : Yes
Make use of C2 pointers : No
Read offset correction : 48
Overread into Lead-In and Lead-Out : No
Fill up missing offset samples with silence : Yes
Delete leading and trailing silent blocks : No
Null samples used in CRC calculations : Yes
Used interface : Native Win32 interface for Win NT & 2000
Used output format : User Defined Encoder
Selected bitrate : 320 kBit/s
Quality : High
Add ID3 tag : No
Command line compressor : C:\Program Files\Exact Audio Copy\Flac\flac.exe
Additional command line options : -V -8 -T "Date=%year%" -T "Genre=%genre%" %source%
TOC of the extracted CD
Track | Start | Length | Start sector | End sector
---------------------------------------------------------
1 | 0:00.00 | 8:38.11 | 0 | 38860
2 | 8:38.11 | 8:43.23 | 38861 | 78108
3 | 17:21.34 | 10:01.22 | 78109 | 123205
4 | 27:22.56 | 5:41.65 | 123206 | 148845
5 | 33:04.46 | 32:09.10 | 148846 | 293530
Range status and errors
Selected range
Filename K:\ЕАС\Carl Ludwig Hubsch - The creators bend a master plan.wav
Peak level 97.7 %
Extraction speed 2.1 X
Range quality 99.9 %
Test CRC 073A2872
Copy CRC 073A2872
Copy OK
No errors occurred
AccurateRip summary
Track 1 not present in database
Track 2 not present in database
Track 3 not present in database
Track 4 not present in database
Track 5 not present in database
None of the tracks are present in the AccurateRip database
End of status report
==== Log checksum C250A44984CB2F747E38345FC2AA557448D70D94076273C8D87C84F92BFB8C02 ====
 
Содержание индексной карты (.CUE)
REM GENRE Jazz
REM DATE 2010
REM DISCID 380F4905
REM COMMENT "ExactAudioCopy v1.0b2"
PERFORMER "Carl Ludwig Hubsch"
TITLE "The creators bend a master plan"
FILE "Carl Ludwig Hubsch - The creators bend a master plan.flac" WAVE
TRACK 01 AUDIO
TITLE "Lumiere"
PERFORMER "Carl Ludwig Hubsch"
FLAGS DCP
INDEX 01 00:00:00
TRACK 02 AUDIO
TITLE "Not Even "
PERFORMER "Carl Ludwig Hubsch"
FLAGS DCP
INDEX 00 08:31:40
INDEX 01 08:38:11
TRACK 03 AUDIO
TITLE "Three Pinups "
PERFORMER "Carl Ludwig Hubsch"
FLAGS DCP
INDEX 00 17:13:47
INDEX 01 17:21:34
TRACK 04 AUDIO
TITLE "Orbiting"
PERFORMER "Carl Ludwig Hubsch"
FLAGS DCP
INDEX 00 27:14:70
INDEX 01 27:22:56
TRACK 05 AUDIO
TITLE "Module Modulations"
PERFORMER "Carl Ludwig Hubsch"
FLAGS DCP
INDEX 00 32:35:27
INDEX 01 33:04:46
Доп. информация: Recorded November 5, 2008 at Institut Francais, Cologne
 
Состав
Drums – Gerry Hemingway
Tenor Saxophone – Matthias Schubert
Trombone – Wolter Wierbos
Tuba – Carl Ludwig Hübsch
03:31
236
Нет комментариев. Ваш будет первым!