Вы используете незарегистрированную версию компонента "Вкладки"!

Поиск

(Avant-Garde Jazz, Free Improvisation) [CD] Chicago Luzern Exchange (Marc Unternahrer, Josh Berman, Keefe Jackson, Frank Rosaly) - Several Lights - 2005, FLAC (image+.cue), lossless

Треклист:
Chicago Luzern Exchange / Several Lights
Жанр: Avant-Garde Jazz, Free Improvisation
Носитель: CD
Страна-производитель диска: US
Год издания: 2005
Издатель (лейбл): Delmark Records
Номер по каталогу: DE-561
Аудиокодек: FLAC (*.flac)
Тип рипа: image+.cue
Битрейт аудио: lossless
Продолжительность: 64:49
Источник (релизер): CD
Наличие сканов в содержимом раздачи: нет
Треклист:
1. Slips 2:38
2. Five Handfuls 3:27
3. Three of Three 0:33
4. Skidding 1:09
5. One of Three 0:23
6. Trouble 3:25
7. Our Thing 4:41
8. Pedal Past 1:34
9. Soon Enough 7:23
10. Dos 2:06
11. A Little Paler 2:09
12. Fairly Fast 2:04
13. Walls 7:13
14. Take the Place 12:57
15. Over the Wire 2:17
16. Spend Your Life 1:47
17. Two of Three 1:07
18. Someone Came and Took Yours and Left You His 4:46
19. One-o-one 1:47
 
Лог создания рипа
Exact Audio Copy V1.0 beta 2 from 29. April 2011
EAC extraction logfile from 17. July 2014, 11:08
Chicago Luzern Exchange / Several Lights
Used drive : Optiarc DVD RW AD-7170A Adapter: 0 ID: 0
Read mode : Secure
Utilize accurate stream : Yes
Defeat audio cache : Yes
Make use of C2 pointers : No
Read offset correction : 48
Overread into Lead-In and Lead-Out : No
Fill up missing offset samples with silence : Yes
Delete leading and trailing silent blocks : No
Null samples used in CRC calculations : Yes
Used interface : Native Win32 interface for Win NT & 2000
Used output format : User Defined Encoder
Selected bitrate : 320 kBit/s
Quality : High
Add ID3 tag : No
Command line compressor : C:\Program Files\Exact Audio Copy\Flac\flac.exe
Additional command line options : -V -8 -T "Date=%year%" -T "Genre=%genre%" %source%
TOC of the extracted CD
Track | Start | Length | Start sector | End sector
---------------------------------------------------------
1 | 0:00.00 | 2:41.34 | 0 | 12108
2 | 2:41.34 | 3:30.56 | 12109 | 27914
3 | 6:12.15 | 0:35.65 | 27915 | 30604
4 | 6:48.05 | 1:12.68 | 30605 | 36072
5 | 8:00.73 | 0:27.67 | 36073 | 38164
6 | 8:28.65 | 3:29.20 | 38165 | 53859
7 | 11:58.10 | 4:47.71 | 53860 | 75455
8 | 16:46.06 | 1:39.22 | 75456 | 82902
9 | 18:25.28 | 7:26.20 | 82903 | 116372
10 | 25:51.48 | 2:09.37 | 116373 | 126084
11 | 28:01.10 | 2:15.54 | 126085 | 136263
12 | 30:16.64 | 2:08.11 | 136264 | 145874
13 | 32:25.00 | 7:16.01 | 145875 | 178575
14 | 39:41.01 | 13:02.29 | 178576 | 237254
15 | 52:43.30 | 2:22.21 | 237255 | 247925
16 | 55:05.51 | 1:52.58 | 247926 | 256383
17 | 56:58.34 | 1:11.62 | 256384 | 261770
18 | 58:10.21 | 4:51.40 | 261771 | 283635
19 | 63:01.61 | 1:47.59 | 283636 | 291719
Range status and errors
Selected range
Filename K:\ЕАС\Chicago Luzern Exchange - Several Lights.wav
Peak level 99.6 %
Extraction speed 2.0 X
Range quality 100.0 %
Test CRC 85A61F64
Copy CRC 85A61F64
Copy OK
No errors occurred
AccurateRip summary
Track 1 accurately ripped (confidence 1) [3C92DA2C] (AR v2)
Track 2 accurately ripped (confidence 1) [1B21C32B] (AR v2)
Track 3 accurately ripped (confidence 1) [861FC2A9] (AR v2)
Track 4 accurately ripped (confidence 1) [81C264F0] (AR v2)
Track 5 accurately ripped (confidence 1) [59C36F45] (AR v2)
Track 6 accurately ripped (confidence 1) [01A571F4] (AR v2)
Track 7 accurately ripped (confidence 1) [875AB3D9] (AR v2)
Track 8 accurately ripped (confidence 1) [766F25B2] (AR v2)
Track 9 accurately ripped (confidence 1) [07938CE3] (AR v2)
Track 10 accurately ripped (confidence 1) [B565C477] (AR v2)
Track 11 accurately ripped (confidence 1) [06EE2BE6] (AR v2)
Track 12 accurately ripped (confidence 1) [F833F6A5] (AR v2)
Track 13 accurately ripped (confidence 1) [5EF843F3] (AR v2)
Track 14 accurately ripped (confidence 1) [8983D11A] (AR v2)
Track 15 accurately ripped (confidence 1) [385CB6F0] (AR v2)
Track 16 accurately ripped (confidence 1) [11C8B71D] (AR v2)
Track 17 accurately ripped (confidence 1) [7852B544] (AR v2)
Track 18 accurately ripped (confidence 1) [4A6E479E] (AR v2)
Track 19 accurately ripped (confidence 1) [DFECD0EF] (AR v2)
All tracks accurately ripped
End of status report
==== Log checksum CD7049C13F2BAF2098F719957B5060964F12AC822D2156150CF14F51E80DF263 ====
 
Содержание индексной карты (.CUE)
REM GENRE Jazz
REM DATE 2005
REM DISCID F10F3113
REM COMMENT "ExactAudioCopy v1.0b2"
PERFORMER "Chicago Luzern Exchange"
TITLE "Several Lights"
FILE "Chicago Luzern Exchange - Several Lights.flac" WAVE
TRACK 01 AUDIO
TITLE "Slips"
PERFORMER "Chicago Luzern Exchange"
INDEX 01 00:00:00
TRACK 02 AUDIO
TITLE "Five Handfuls"
PERFORMER "Chicago Luzern Exchange"
INDEX 00 02:38:04
INDEX 01 02:41:34
TRACK 03 AUDIO
TITLE "Three Of Three"
PERFORMER "Chicago Luzern Exchange"
INDEX 00 06:09:15
INDEX 01 06:12:15
TRACK 04 AUDIO
TITLE "Skidding"
PERFORMER "Chicago Luzern Exchange"
INDEX 00 06:46:05
INDEX 01 06:48:05
TRACK 05 AUDIO
TITLE "One Of Three"
PERFORMER "Chicago Luzern Exchange"
INDEX 00 07:57:73
INDEX 01 08:00:73
TRACK 06 AUDIO
TITLE "Trouble"
PERFORMER "Chicago Luzern Exchange"
INDEX 00 08:24:65
INDEX 01 08:28:65
TRACK 07 AUDIO
TITLE "Our Thing"
PERFORMER "Chicago Luzern Exchange"
INDEX 00 11:54:55
INDEX 01 11:58:10
TRACK 08 AUDIO
TITLE "Pedal Past"
PERFORMER "Chicago Luzern Exchange"
INDEX 00 16:40:06
INDEX 01 16:46:06
TRACK 09 AUDIO
TITLE "Soon Enough"
PERFORMER "Chicago Luzern Exchange"
INDEX 00 18:20:28
INDEX 01 18:25:28
TRACK 10 AUDIO
TITLE "Dos"
PERFORMER "Chicago Luzern Exchange"
INDEX 00 25:48:48
INDEX 01 25:51:48
TRACK 11 AUDIO
TITLE "A Little Paler"
PERFORMER "Chicago Luzern Exchange"
INDEX 00 27:58:10
INDEX 01 28:01:10
TRACK 12 AUDIO
TITLE "Fairly Fast"
PERFORMER "Chicago Luzern Exchange"
INDEX 00 30:10:64
INDEX 01 30:16:64
TRACK 13 AUDIO
TITLE "Walls"
PERFORMER "Chicago Luzern Exchange"
INDEX 00 32:21:00
INDEX 01 32:25:00
TRACK 14 AUDIO
TITLE "Take The Place"
PERFORMER "Chicago Luzern Exchange"
INDEX 00 39:38:01
INDEX 01 39:41:01
TRACK 15 AUDIO
TITLE "Over The Wire"
PERFORMER "Chicago Luzern Exchange"
INDEX 00 52:38:30
INDEX 01 52:43:30
TRACK 16 AUDIO
TITLE "Spend Your Life"
PERFORMER "Chicago Luzern Exchange"
INDEX 00 55:01:21
INDEX 01 55:05:51
TRACK 17 AUDIO
TITLE "Two Of Three"
PERFORMER "Chicago Luzern Exchange"
INDEX 00 56:53:34
INDEX 01 56:58:34
TRACK 18 AUDIO
TITLE "Someone Came And Took Yours And Left You His"
PERFORMER "Chicago Luzern Exchange"
INDEX 00 58:06:21
INDEX 01 58:10:21
TRACK 19 AUDIO
TITLE "One-o-one"
PERFORMER "Chicago Luzern Exchange"
INDEX 00 62:56:31
INDEX 01 63:01:61
Доп. информация: Recorded July 9 & 10, 2004
 
Об альбоме (сборнике)
Swiss tubaist Marc Unternahrer provided the inspiration for the exchange noted in this foursome’s moniker, but the group’s album, Several Lights (Delmark), is ultimately a landmark for Chicago music: it’s a fantastic album of free improvisation, one of the most powerful statements yet by the wave of post-Ken Vandermark players who gravitated here in the late 90s. Unternahrer, a dazzling player whose extended technique on his unwieldy ax conveys a low, trombonely range and a great deal of blubbery-sound imagination, spent five months here in 2002 as part of the Chicago Sister Cities International Program, quickly hooking up with a large crew of local players. He played most often with cornetist Josh Berman, tenor saxophonist Keefe Jackson, and drummer Frank Rosaly, and returned here last summer to record Several Lights with them. Considering that the quartet had no tunes and no preset melodic or harmonic structures, it’s astonishing how compositional the tracks feel; the players clearly have a deep rapport, but it takes an especially refined sensitivity for so many serendipitous collisions to sound so harmonious. And unlike many free-improv players in Chicago, this group isn’t ashamed to draw upon its collective love of jazz. Rosaly plays with a feather-stroke touch, dropping a hint of pulse here or a splash of color there, while Jackson’s marbled tone expresses a lovely lyricism no matter how brusque or serrated his lines get. Berman and Unternahrer play quicksilver, high-low brass games: the cornetist excels on the instrument’s lower registers and scratches up his liquid high notes, while the tubaist simulates snatches of bass lines and blows floor-rumbling long tones that resonate with the snaking lines that Jackson and Berman produce.
 
Состав
Marc Unternahrer – tuba
Josh Berman – cornet
Keefe Jackson – tenor saxophone
Frank Rosaly – drums
По всем вопросам пишите личное сообщение пользователю M0p94ok.
03:29
164
Нет комментариев. Ваш будет первым!