Поиск

(Free Improvisation) [CD] Dempa (Aki Takase, Aleksander Kolkowski, Tony Buck) - Nine Fragments - 2002, FLAC (image+.cue), lossless

(Free Improvisation) [CD] Dempa (Aki Takase, Aleksander Kolkowski, Tony Buck) - Nine Fragments - 2002, FLAC (image+.cue), lossless
Треклист:
Dempa / Nine Fragments
Жанр: Free Improvisation
Носитель: CD
Страна-производитель диска: UK
Год издания: 2002
Издатель (лейбл): Leo Records
Номер по каталогу: CD LR 346
Аудиокодек: FLAC (*.flac)
Тип рипа: image+.cue
Битрейт аудио: lossless
Продолжительность: 67:49
Источник (релизер): cd
Наличие сканов в содержимом раздачи: нет
Треклист:
1. Newtons Triple Hop 5:42
2. First Day 5:49
3. Schwarze Tasten 6:19
4. Nine Fragments 9:00
5. The Poles 2:41
6. Gramophony 6:29
7. Jasmin Tea 4:12
8. Diagonal 7:25
9. Where Europe Begins.... 20:03
 
Лог создания рипа
Exact Audio Copy V1.0 beta 2 from 29. April 2011
EAC extraction logfile from 7. January 2014, 13:56
Dempa / Nine Fragments
Used drive : Optiarc DVD RW AD-7170A Adapter: 0 ID: 0
Read mode : Secure
Utilize accurate stream : Yes
Defeat audio cache : Yes
Make use of C2 pointers : No
Read offset correction : 48
Overread into Lead-In and Lead-Out : No
Fill up missing offset samples with silence : Yes
Delete leading and trailing silent blocks : No
Null samples used in CRC calculations : Yes
Used interface : Native Win32 interface for Win NT & 2000
Used output format : User Defined Encoder
Selected bitrate : 320 kBit/s
Quality : High
Add ID3 tag : No
Command line compressor : C:\Program Files\Exact Audio Copy\Flac\flac.exe
Additional command line options : -V -8 -T "Date=%year%" -T "Genre=%genre%" %source%
TOC of the extracted CD
Track | Start | Length | Start sector | End sector
---------------------------------------------------------
1 | 0:00.00 | 5:43.39 | 0 | 25763
2 | 5:43.39 | 5:50.05 | 25764 | 52018
3 | 11:33.44 | 6:19.38 | 52019 | 80481
4 | 17:53.07 | 9:00.47 | 80482 | 121028
5 | 26:53.54 | 2:41.11 | 121029 | 133114
6 | 29:34.65 | 6:30.00 | 133115 | 162364
7 | 36:04.65 | 4:14.41 | 162365 | 181455
8 | 40:19.31 | 7:26.16 | 181456 | 214921
9 | 47:45.47 | 20:04.21 | 214922 | 305242
Range status and errors
Selected range
Filename K:\ЕАС\Dempa - Nine Fragments.wav
Peak level 89.1 %
Extraction speed 2.0 X
Range quality 100.0 %
Test CRC D3F60F4C
Copy CRC D3F60F4C
Copy OK
No errors occurred
AccurateRip summary
Track 1 not present in database
Track 2 not present in database
Track 3 not present in database
Track 4 not present in database
Track 5 not present in database
Track 6 not present in database
Track 7 not present in database
Track 8 not present in database
Track 9 not present in database
None of the tracks are present in the AccurateRip database
End of status report
==== Log checksum 2947678136AD07BFD63E4DDC099A1814815AF18BF532509DFDF54B2D7C24D236 ====
 
Содержание индексной карты (.CUE)
REM GENRE Jazz
REM DATE 2002
REM DISCID 800FE509
REM COMMENT "ExactAudioCopy v1.0b2"
PERFORMER "Dempa"
TITLE "Nine Fragments"
FILE "Dempa - Nine Fragments.flac" WAVE
TRACK 01 AUDIO
TITLE "Newtons Triple Hop"
PERFORMER "Dempa"
ISRC 000000000000
INDEX 01 00:00:00
TRACK 02 AUDIO
TITLE "First Day"
PERFORMER "Dempa"
ISRC 000000000000
INDEX 01 05:43:39
TRACK 03 AUDIO
TITLE "Schwarze Tasten"
PERFORMER "Dempa"
ISRC 000000000000
INDEX 01 11:33:44
TRACK 04 AUDIO
TITLE "Nine Fragments"
PERFORMER "Dempa"
ISRC 000000000000
INDEX 01 17:53:07
TRACK 05 AUDIO
TITLE "The Poles"
PERFORMER "Dempa"
ISRC 000000000000
INDEX 01 26:53:54
TRACK 06 AUDIO
TITLE "Gramophony"
PERFORMER "Dempa"
ISRC 000000000000
INDEX 01 29:34:65
TRACK 07 AUDIO
TITLE "Jasmin Tea"
PERFORMER "Dempa"
ISRC 000000000000
INDEX 01 36:04:65
TRACK 08 AUDIO
TITLE "Diagonal"
PERFORMER "Dempa"
ISRC 000000000000
INDEX 01 40:19:31
TRACK 09 AUDIO
TITLE "When Europe Begins ...."
PERFORMER "Dempa"
ISRC 000000000000
INDEX 01 47:45:47
Доп. информация: Recorded 21-23 May, 2001 at DeutschlandRadio Studio 10
 
Состав
Drums, Electronics [Live] – Tony Buck
Piano, Koto [China], Electronics [Live], Music By – Aki Takase
Violin, Stroh Violin, Turntables [Gramophone], Electronics [Live] – Aleksander Kolkowski
По всем вопросам пишите личное сообщение пользователю M0p94ok.
22:06
176
Нет комментариев. Ваш будет первым!