Вы используете незарегистрированную версию компонента "Вкладки"!

Поиск

(Free Improvisation) [CD] Frank Gratkowski, Simon Nabatov, Marcus Schmickler - Deployment - 2010, FLAC (image+.cue), lossless

(Free Improvisation) [CD] Frank Gratkowski, Simon Nabatov, Marcus Schmickler - Deployment - 2010, FLAC (image+.cue), lossless
Треклист:
Gratkowski Nabatov Schmickler / Deployment
Жанр: Free Improvisation
Носитель: CD
Страна-производитель диска: UK
Год издания: 2010
Издатель (лейбл): Leo Records
Номер по каталогу: CD LR 565
Аудиокодек: FLAC (*.flac)
Тип рипа: image+.cue
Битрейт аудио: lossless
Продолжительность: 51:00
Источник (релизер): CD
Наличие сканов в содержимом раздачи: нет
Треклист:
1. Allocation 6:02
2. Allocation 5:44
3. Allocation 3:07
4. Allocation 9:24
5. Artifact 2:57
6. Cluster 9:24
7. Instance 8:51
8. Node 5:22
 
Лог создания рипа
Exact Audio Copy V1.0 beta 2 from 29. April 2011
EAC extraction logfile from 7. January 2014, 15:02
Gratkowski Nabatov Schmickler / Deployment
Used drive : Optiarc DVD RW AD-7170A Adapter: 0 ID: 0
Read mode : Secure
Utilize accurate stream : Yes
Defeat audio cache : Yes
Make use of C2 pointers : No
Read offset correction : 48
Overread into Lead-In and Lead-Out : No
Fill up missing offset samples with silence : Yes
Delete leading and trailing silent blocks : No
Null samples used in CRC calculations : Yes
Used interface : Native Win32 interface for Win NT & 2000
Used output format : User Defined Encoder
Selected bitrate : 320 kBit/s
Quality : High
Add ID3 tag : No
Command line compressor : C:\Program Files\Exact Audio Copy\Flac\flac.exe
Additional command line options : -V -8 -T "Date=%year%" -T "Genre=%genre%" %source%
TOC of the extracted CD
Track | Start | Length | Start sector | End sector
---------------------------------------------------------
1 | 0:00.00 | 6:02.47 | 0 | 27196
2 | 6:02.47 | 5:44.20 | 27197 | 53016
3 | 11:46.67 | 3:07.68 | 53017 | 67109
4 | 14:54.60 | 9:24.32 | 67110 | 109441
5 | 24:19.17 | 2:59.51 | 109442 | 122917
6 | 27:18.68 | 9:25.13 | 122918 | 165305
7 | 36:44.06 | 8:55.00 | 165306 | 205430
8 | 45:39.06 | 5:21.57 | 205431 | 229562
Range status and errors
Selected range
Filename K:\ЕАС\Gratkowski Nabatov Schmickler - Deployment.wav
Peak level 100.0 %
Extraction speed 1.9 X
Range quality 100.0 %
Test CRC 85CC4791
Copy CRC 85CC4791
Copy OK
No errors occurred
AccurateRip summary
Track 1 accurately ripped (confidence 1) [A5BA8669] (AR v2)
Track 2 accurately ripped (confidence 1) [21FB2ED1] (AR v2)
Track 3 accurately ripped (confidence 1) [5991CF54] (AR v2)
Track 4 accurately ripped (confidence 1) [2140799F] (AR v2)
Track 5 accurately ripped (confidence 1) [FD3BD294] (AR v2)
Track 6 accurately ripped (confidence 1) [72D0A7A8] (AR v2)
Track 7 accurately ripped (confidence 1) [EDE36816] (AR v2)
Track 8 accurately ripped (confidence 1) [7A62F7B4] (AR v2)
All tracks accurately ripped
End of status report
==== Log checksum 9EB73B0B684357DF9B20E62CB52C249D71B7DC4E5870531F40D78A25EFB3E0AB ====
 
Содержание индексной карты (.CUE)
REM GENRE Avantgarde
REM DATE 2010
REM DISCID 640BF408
REM COMMENT "ExactAudioCopy v1.0b2"
PERFORMER "Gratkowski Nabatov Schmickler"
TITLE "Deployment "
FILE "Gratkowski Nabatov Schmickler - Deployment.flac" WAVE
TRACK 01 AUDIO
TITLE "Allocation"
PERFORMER "Gratkowski Nabatov Schmickler"
ISRC GBJZD0100023
INDEX 01 00:00:00
TRACK 02 AUDIO
TITLE "Allocation"
PERFORMER "Gratkowski Nabatov Schmickler"
ISRC GBJZD0100024
INDEX 01 06:02:47
TRACK 03 AUDIO
TITLE "Allocation"
PERFORMER "Gratkowski Nabatov Schmickler"
ISRC GBJZD0100025
INDEX 01 11:46:67
TRACK 04 AUDIO
TITLE "Allocation"
PERFORMER "Gratkowski Nabatov Schmickler"
ISRC GBJZD0100026
INDEX 01 14:54:60
TRACK 05 AUDIO
TITLE "Artifact"
PERFORMER "Gratkowski Nabatov Schmickler"
ISRC GBJZD0100027
INDEX 00 24:15:61
INDEX 01 24:19:17
TRACK 06 AUDIO
TITLE "Cluster"
PERFORMER "Gratkowski Nabatov Schmickler"
ISRC GBJZD0100028
INDEX 00 27:16:15
INDEX 01 27:18:68
TRACK 07 AUDIO
TITLE "Instance"
PERFORMER "Gratkowski Nabatov Schmickler"
ISRC GBJZD0100029
INDEX 00 36:42:47
INDEX 01 36:44:06
TRACK 08 AUDIO
TITLE "Node"
PERFORMER "Gratkowski Nabatov Schmickler"
ISRC GBJZD0100030
INDEX 00 45:34:69
INDEX 01 45:39:06
Доп. информация: Recorded live at LOFT, Cologne June 24, 2009
 
Состав
Alto Saxophone, Clarinet [Clarinets] – Frank Gratkowski
Computer, Mastered By – Marcus Schmickler
Piano [Prepared] – Simon Nabatov
По всем вопросам пишите личное сообщение пользователю M0p94ok.
22:06
172
Нет комментариев. Ваш будет первым!