Вы используете незарегистрированную версию компонента "Вкладки"!

Поиск

(Avant-Garde Jazz, Free Improvisation) [CD] Elton Dean - Elton Dean {1972} - 2013, FLAC (tracks+.cue), lossless

(Avant-Garde Jazz, Free Improvisation) [CD] Elton Dean - Elton Dean {1972} - 2013, FLAC (tracks+.cue), lossless
Треклист:
♦ Elton Dean - Elton Dean {1972} ♦
Жанр: Avant-Garde Jazz, Free Improvisation
Носитель: CD
Страна-производитель диска: Japan
Год издания: 2013
Издатель (лейбл): Columbia / Sony Music Japan
Номер по каталогу: SICP 30324
Аудиокодек: FLAC (*.flac)
Тип рипа: tracks+.cue
Битрейт аудио: lossless
Продолжительность: 01:10:48
Источник (релизер): ruskaval
Наличие сканов в содержимом раздачи: да
Треклист:
01. Ooglenenovastrome [15:23]
02. Something Passed Me By [05:37]
03. Blind Badger [06:46]
04. Neo-Caliban Grides [06:58]
05. Part: The Last [05:53]
06. Banking On Bishopsgate (bonus track) [20:33]
07. A.N.1. (bonus track) [05:04]
08. Fun Cup (bonus track) [04:30]
 
Лог создания рипа
Exact Audio Copy V1.0 beta 3 from 29. August 2011
EAC extraction logfile from 27. December 2013, 0:15
Elton Dean / Elton Dean
Used drive : TSSTcorpCDDVDW SE-208DB Adapter: 7 ID: 0
Read mode : Secure
Utilize accurate stream : Yes
Defeat audio cache : Yes
Make use of C2 pointers : No
Read offset correction : 6
Overread into Lead-In and Lead-Out : No
Fill up missing offset samples with silence : Yes
Delete leading and trailing silent blocks : No
Null samples used in CRC calculations : Yes
Used interface : Native Win32 interface for Win NT & 2000
Gap handling : Appended to previous track
Used output format : User Defined Encoder
Selected bitrate : 1024 kBit/s
Quality : High
Add ID3 tag : No
Command line compressor : C:\Program Files (x86)\FLAC Frontend\tools\flac.exe
Additional command line options : -8 -V -T "ARTIST=%artist%" -T "TITLE=%title%" -T "ALBUM=%albumtitle%" -T "DATE=%year%" -T "TRACKNUMBER=%tracknr%" -T "TOTALTRACKS=%numtracks%" -T "GENRE=%genre%" -T "ALBUMARTIST=%albumartist%" -T "ALBUM ARTIST=%albumartist%" -T "COMMENT=EAC Secure Mode, Test & Copy, AccurateRip, FLAC -8" %source%
TOC of the extracted CD
Track | Start | Length | Start sector | End sector
---------------------------------------------------------
1 | 0:00.00 | 15:23.04 | 0 | 69228
2 | 15:23.04 | 5:37.64 | 69229 | 94567
3 | 21:00.68 | 6:46.20 | 94568 | 125037
4 | 27:47.13 | 6:58.10 | 125038 | 156397
5 | 34:45.23 | 5:53.08 | 156398 | 182880
6 | 40:38.31 | 20:33.72 | 182881 | 275427
7 | 61:12.28 | 5:04.57 | 275428 | 298284
8 | 66:17.10 | 4:30.71 | 298285 | 318605
Track 1
Filename D:\_EAC\Elton Dean - Elton Dean (1972) {2013 Japan Mini LP Blu-spec CD2}\01 - Ooglenenovastrome.wav
Pre-gap length 0:00:02.00
Peak level 97.7 %
Extraction speed 3.1 X
Track quality 100.0 %
Test CRC 02240EA3
Copy CRC 02240EA3
Track not present in AccurateRip database
Copy OK
Track 2
Filename D:\_EAC\Elton Dean - Elton Dean (1972) {2013 Japan Mini LP Blu-spec CD2}\02 - Something Passed Me By.wav
Pre-gap length 0:00:04.12
Peak level 97.7 %
Extraction speed 3.4 X
Track quality 100.0 %
Test CRC 74832604
Copy CRC 74832604
Track not present in AccurateRip database
Copy OK
Track 3
Filename D:\_EAC\Elton Dean - Elton Dean (1972) {2013 Japan Mini LP Blu-spec CD2}\03 - Blind Badger.wav
Pre-gap length 0:00:05.29
Peak level 97.7 %
Extraction speed 3.7 X
Track quality 100.0 %
Test CRC A1382468
Copy CRC A1382468
Track not present in AccurateRip database
Copy OK
Track 4
Filename D:\_EAC\Elton Dean - Elton Dean (1972) {2013 Japan Mini LP Blu-spec CD2}\04 - Neo-Caliban Grides.wav
Pre-gap length 0:00:03.58
Peak level 97.7 %
Extraction speed 3.9 X
Track quality 100.0 %
Test CRC 60E3BEAA
Copy CRC 60E3BEAA
Track not present in AccurateRip database
Copy OK
Track 5
Filename D:\_EAC\Elton Dean - Elton Dean (1972) {2013 Japan Mini LP Blu-spec CD2}\05 - Part- The Last.wav
Pre-gap length 0:00:02.64
Peak level 97.7 %
Extraction speed 4.1 X
Track quality 100.0 %
Test CRC DD2419CE
Copy CRC DD2419CE
Track not present in AccurateRip database
Copy OK
Track 6
Filename D:\_EAC\Elton Dean - Elton Dean (1972) {2013 Japan Mini LP Blu-spec CD2}\06 - Banking On Bishopsgate (bonus track).wav
Pre-gap length 0:00:03.61
Peak level 97.7 %
Extraction speed 4.9 X
Track quality 100.0 %
Test CRC 4F8438F3
Copy CRC 4F8438F3
Track not present in AccurateRip database
Copy OK
Track 7
Filename D:\_EAC\Elton Dean - Elton Dean (1972) {2013 Japan Mini LP Blu-spec CD2}\07 - A.N.1. (bonus track).wav
Pre-gap length 0:00:02.60
Peak level 97.7 %
Extraction speed 4.1 X
Track quality 99.9 %
Test CRC 00A63D1E
Copy CRC 00A63D1E
Track not present in AccurateRip database
Copy OK
Track 8
Filename D:\_EAC\Elton Dean - Elton Dean (1972) {2013 Japan Mini LP Blu-spec CD2}\08 - Fun Cup (bonus track).wav
Pre-gap length 0:00:02.13
Peak level 97.7 %
Extraction speed 4.0 X
Track quality 99.9 %
Test CRC 270746E9
Copy CRC 270746E9
Track not present in AccurateRip database
Copy OK
None of the tracks are present in the AccurateRip database
No errors occurred
End of status report
==== Log checksum A9A23A875FCA1878A4AA70F1D74ED0AA6C06EA62CBC510901386043A6ECDC6D9 ====
 
Содержание индексной карты (.CUE)
REM GENRE Jazz
REM DATE 2013
REM DISCID 7E109808
REM COMMENT "ExactAudioCopy v1.0b3"
PERFORMER "Elton Dean"
TITLE "Elton Dean"
FILE "01 - Ooglenenovastrome.wav" WAVE
TRACK 01 AUDIO
TITLE "Ooglenenovastrome"
PERFORMER "Elton Dean"
INDEX 01 00:00:00
TRACK 02 AUDIO
TITLE "Something Passed Me By"
PERFORMER "Elton Dean"
INDEX 00 15:18:67
FILE "02 - Something Passed Me By.wav" WAVE
INDEX 01 00:00:00
TRACK 03 AUDIO
TITLE "Blind Badger"
PERFORMER "Elton Dean"
INDEX 00 05:32:35
FILE "03 - Blind Badger.wav" WAVE
INDEX 01 00:00:00
TRACK 04 AUDIO
TITLE "Neo-Caliban Grides"
PERFORMER "Elton Dean"
INDEX 00 06:42:37
FILE "04 - Neo-Caliban Grides.wav" WAVE
INDEX 01 00:00:00
TRACK 05 AUDIO
TITLE "Part: The Last"
PERFORMER "Elton Dean"
INDEX 00 06:55:21
FILE "05 - Part- The Last.wav" WAVE
INDEX 01 00:00:00
TRACK 06 AUDIO
TITLE "Banking On Bishopsgate (bonus track)"
PERFORMER "Elton Dean"
INDEX 00 05:49:22
FILE "06 - Banking On Bishopsgate (bonus track).wav" WAVE
INDEX 01 00:00:00
TRACK 07 AUDIO
TITLE "A.N.1. (bonus track)"
PERFORMER "Elton Dean"
INDEX 00 20:31:12
FILE "07 - A.N.1. (bonus track).wav" WAVE
INDEX 01 00:00:00
TRACK 08 AUDIO
TITLE "Fun Cup (bonus track)"
PERFORMER "Elton Dean"
INDEX 00 05:02:44
FILE "08 - Fun Cup (bonus track).wav" WAVE
INDEX 01 00:00:00
 
Состав
Personnel:
Elton Dean Piano (Electric), Producer, Sax (Alto), Saxello
Mike Ratledge Organ, Piano
Roy Babbington String Bass
Marc Charig Cornet
Phil Howard Drums
Neville Whitehead Bass
По всем вопросам пишите личное сообщение пользователю M0p94ok.
22:05
176
Нет комментариев. Ваш будет первым!