Поиск

(Free Improvisation / Avant-Garde) Ursel Schlicht / Hans Tammen - Statements - 1995, FLAC (image+.cue), lossless

Треклист:
Ursel Schlicht / Hans Tammen - Statements

Жанр: Free Improvisation / Avant-Garde
Год выпуска диска: 1995
Производитель диска: Hybrid Music 11; Germany
Аудио кодек: FLAC
Тип рипа: image+.cue
Битрейт аудио: lossless
Продолжительность: 51:43
Ursel Schlicht: piano, prepared piano
Hans Tammen: guitar, prepared guitar
1. One-Two-One-Two-Three-Four
2. Five
3. Bizzybee
4. Rest-less
5. Pensive Vladeck
Skizzen I
6. Vivace
7. Subito pf
8. Simile
9. Presto Con Fuoco
10. Misterioso
11. Castelnaudary Surprise
Werkstatt I
12. Bottlenecks
13. Bottlenecks Advanced
14. Achat & Zollstock
15. Bleche & Pedal
16. Trommel-Blech
17. G
18. Mäander
19. Harmonics
Skizzen II
20. Part 1
21. Part 2
22. Part 3
23. Part 4
24. Part 5
25. Part 6
26. Hit
Werkstatt II
27. Cachot
28. Rhythm Task
29. Chain Gang
30. Riot
 
EAC Report
Exact Audio Copy V0.99 prebeta 4 from 23. January 2008
EAC extraction logfile from 11. May 2010, 22:17
Ursel Schlicht / Hans Tammen / Statements
Used drive : TSSTcorpCD/DVDW SH-S182M Adapter: 2 ID: 0
Read mode : Secure
Utilize accurate stream : Yes
Defeat audio cache : Yes
Make use of C2 pointers : No
Read offset correction : 6
Overread into Lead-In and Lead-Out : No
Fill up missing offset samples with silence : Yes
Delete leading and trailing silent blocks : No
Null samples used in CRC calculations : Yes
Used interface : Installed external ASPI interface
Used output format : User Defined Encoder
Selected bitrate : 1024 kBit/s
Quality : High
Add ID3 tag : No
Command line compressor : C:\Program Files\Exact Audio Copy\Flac\flac.exe
Additional command line options : -6 -V -T "ARTIST=%a" -T "TITLE=%t" -T "ALBUM=%g" -T "DATE=%y" -T "TRACKNUMBER=%n" -T "GENRE=%m" -T "COMMENT=EAC FLAC -6" %s
TOC of the extracted CD
Track | Start | Length | Start sector | End sector
---------------------------------------------------------
1 | 0:00.00 | 1:37.30 | 0 | 7304
2 | 1:37.30 | 1:21.07 | 7305 | 13386
3 | 2:58.37 | 2:32.48 | 13387 | 24834
4 | 5:31.10 | 1:33.30 | 24835 | 31839
5 | 7:04.40 | 5:45.67 | 31840 | 57781
6 | 12:50.32 | 1:18.25 | 57782 | 63656
7 | 14:08.57 | 1:21.70 | 63657 | 69801
8 | 15:30.52 | 1:08.20 | 69802 | 74921
9 | 16:38.72 | 1:04.08 | 74922 | 79729
10 | 17:43.05 | 0:48.57 | 79730 | 83386
11 | 18:31.62 | 2:51.55 | 83387 | 96266
12 | 21:23.42 | 0:45.28 | 96267 | 99669
13 | 22:08.70 | 1:25.70 | 99670 | 106114
14 | 23:34.65 | 1:34.62 | 106115 | 113226
15 | 25:09.52 | 2:43.70 | 113227 | 125521
16 | 27:53.47 | 0:34.43 | 125522 | 128114
17 | 28:28.15 | 2:01.55 | 128115 | 137244
18 | 30:29.70 | 2:12.25 | 137245 | 147169
19 | 32:42.20 | 3:52.62 | 147170 | 164631
20 | 36:35.07 | 0:52.38 | 164632 | 168569
21 | 37:27.45 | 1:08.60 | 168570 | 173729
22 | 38:36.30 | 0:41.57 | 173730 | 176861
23 | 39:18.12 | 1:23.45 | 176862 | 183131
24 | 40:41.57 | 1:35.73 | 183132 | 190329
25 | 42:17.55 | 1:01.42 | 190330 | 194946
26 | 43:19.22 | 3:36.30 | 194947 | 211176
27 | 46:55.52 | 1:29.13 | 211177 | 217864
28 | 48:24.65 | 1:17.57 | 217865 | 223696
29 | 49:42.47 | 1:27.13 | 223697 | 230234
30 | 51:09.60 | 0:33.42 | 230235 | 232751
Range status and errors
Selected range
Filename C:\Users\Igor\Music\eac\Ursel Schlicht & Hans Tammen - Statements.wav
Peak level 98.0 %
Range quality 100.0 %
Test CRC 2A86DEC4
Copy CRC 2A86DEC4
Copy OK
No errors occurred
AccurateRip summary
Track 1 not present in database
Track 2 not present in database
Track 3 not present in database
Track 4 not present in database
Track 5 not present in database
Track 6 not present in database
Track 7 not present in database
Track 8 not present in database
Track 9 not present in database
Track 10 not present in database
Track 11 not present in database
Track 12 not present in database
Track 13 not present in database
Track 14 not present in database
Track 15 not present in database
Track 16 not present in database
Track 17 not present in database
Track 18 not present in database
Track 19 not present in database
Track 20 not present in database
Track 21 not present in database
Track 22 not present in database
Track 23 not present in database
Track 24 not present in database
Track 25 not present in database
Track 26 not present in database
Track 27 not present in database
Track 28 not present in database
Track 29 not present in database
Track 30 not present in database
None of the tracks are present in the AccurateRip database
End of status report

рип собственный
По всем вопросам пишите личное сообщение пользователю M0p94ok.
22:54
168
Нет комментариев. Ваш будет первым!