Вы используете незарегистрированную версию компонента "Вкладки"!

Поиск

(Free Jazz, Free Improvisation) Anthony Braxton / Joelle Leandre - Duo ( Heidelberg Loppem ) 2007 - 2009, FLAC (tracks+.cue), lossless

Треклист:
Anthony Braxton / Joëlle Léandre
Duo ( Heidelberg Loppem ) 2007
Жанр: Free Jazz, Free Improvisation
Год выпуска диска: 2009
Производитель диска: Leo Records (CD LR 548/549)
Источник: soulseek
Аудио кодек: FLAC
Тип рипа: tracks+.cue
Битрейт аудио: lossless
Продолжительность: 1:29:26
Трэклист:
cd 1
1. Duo 1 49:53
cd 2
1. Duo 2 36:25
2. Duo 3 3:08
music by Anthony Braxton & Joëlle Léandre
recorded March 17 at Heidelberg Cafe, Loppem, Belgium
Anthony Braxton sopranino, soprano & alto saxophones, contrabass clarinet
Joëlle Léandre bass
 
Отчёт EAC
 
I
Exact Audio Copy V0.99 prebeta 4 from 23. January 2008
EAC extraction logfile from 22. December 2009, 19:48
Anthony Braxton - Joelle Leandre / Duo ( Heidelberg Loppem) 2007
Used drive : HL-DT-STBDDVDRW GGC-H20L Adapter: 1 ID: 0
Read mode : Secure
Utilize accurate stream : Yes
Defeat audio cache : Yes
Make use of C2 pointers : No
Read offset correction : 667
Overread into Lead-In and Lead-Out : No
Fill up missing offset samples with silence : Yes
Delete leading and trailing silent blocks : No
Null samples used in CRC calculations : Yes
Used interface : Native Win32 interface for Win NT & 2000
Gap handling : Appended to previous track
Used output format : User Defined Encoder
Selected bitrate : 768 kBit/s
Quality : High
Add ID3 tag : No
Command line compressor : D:\Audio\Exact Audio Copy\FLAC\FLAC.EXE
Additional command line options : -V -8 -T "artist=%a" -T "title=%t" -T "album=%g" -T "date=%y" -T "tracknumber=%n" -T "genre=%m" %s
TOC of the extracted CD
Track | Start | Length | Start sector | End sector
---------------------------------------------------------
1 | 0:00.00 | 49:52.73 | 0 | 224472
Track 1
Filename E:\New Rip\Anthony Braxton - Joelle Leandre - Duo ( Heidelberg Loppem) 2007\01 - Duo 1.wav
Pre-gap length 0:00:02.00
Peak level 100.0 %
Track quality 100.0 %
Test CRC 8061C55B
Copy CRC 8061C55B
Track not present in AccurateRip database
Copy OK
None of the tracks are present in the AccurateRip database
No errors occurred
End of status report
 
II
Exact Audio Copy V0.99 prebeta 4 from 23. January 2008
EAC extraction logfile from 22. December 2009, 21:10
Anthony Braxton - Joelle Leandre / Duo ( Heidelberg Loppem) 2007 Disc 2
Used drive : HL-DT-STBDDVDRW GGC-H20L Adapter: 1 ID: 0
Read mode : Secure
Utilize accurate stream : Yes
Defeat audio cache : Yes
Make use of C2 pointers : No
Read offset correction : 667
Overread into Lead-In and Lead-Out : No
Fill up missing offset samples with silence : Yes
Delete leading and trailing silent blocks : No
Null samples used in CRC calculations : Yes
Used interface : Native Win32 interface for Win NT & 2000
Gap handling : Appended to previous track
Used output format : User Defined Encoder
Selected bitrate : 768 kBit/s
Quality : High
Add ID3 tag : No
Command line compressor : D:\Audio\Exact Audio Copy\FLAC\FLAC.EXE
Additional command line options : -V -8 -T "artist=%a" -T "title=%t" -T "album=%g" -T "date=%y" -T "tracknumber=%n" -T "genre=%m" %s
TOC of the extracted CD
Track | Start | Length | Start sector | End sector
---------------------------------------------------------
1 | 0:00.00 | 36:24.48 | 0 | 163847
2 | 36:24.48 | 3:08.18 | 163848 | 177965
Track 1
Filename E:\New Rip\Anthony Braxton - Joelle Leandre - Duo ( Heidelberg Loppem) 2007 Disc 2\01 - Duo 2.wav
Pre-gap length 0:00:02.00
Peak level 100.0 %
Track quality 99.9 %
Test CRC 39D978FD
Copy CRC 39D978FD
Track not present in AccurateRip database
Copy OK
Track 2
Filename E:\New Rip\Anthony Braxton - Joelle Leandre - Duo ( Heidelberg Loppem) 2007 Disc 2\02 - Duo 3.wav
Peak level 100.0 %
Track quality 100.0 %
Test CRC CFDDEADB
Copy CRC CFDDEADB
Track not present in AccurateRip database
Copy OK
None of the tracks are present in the AccurateRip database
No errors occurred
End of status report
 
cue
 
I
REM GENRE Jazz
REM DATE 2009
REM DISCID 020BB001
REM COMMENT "ExactAudioCopy v0.99pb4"
PERFORMER "Anthony Braxton - Joelle Leandre"
TITLE "Duo ( Heidelberg Loppem) 2007"
FILE "01 - Duo 1.wav" WAVE
TRACK 01 AUDIO
TITLE "Duo 1"
PERFORMER "Anthony Braxton - Joelle Leandre"
INDEX 01 00:00:00
 
II
REM GENRE Jazz
REM DATE 2009
REM DISCID 13094402
REM COMMENT "ExactAudioCopy v0.99pb4"
PERFORMER "Anthony Braxton - Joelle Leandre"
TITLE "Duo ( Heidelberg Loppem) 2007 Disc 2"
FILE "01 - Duo 2.wav" WAVE
TRACK 01 AUDIO
TITLE "Duo 2"
PERFORMER "Anthony Braxton - Joelle Leandre"
INDEX 01 00:00:00
FILE "02 - Duo 3.wav" WAVE
TRACK 02 AUDIO
TITLE "Duo 3"
PERFORMER "Anthony Braxton - Joelle Leandre"
INDEX 01 00:00:00
 
Отчёт Audiocheckera
 
I
AUDIOCHECKER v2.0 beta (build 457) - by Dester - opdester@freemail.hu
~~~~~~~~~~~~~~~~~~~~~~~~~~~~~~~~~~
-=== DO NOT EDIT THIS FILE! ===-
Path: ...\disc 1
1 -=- 01 - Duo 1.flac -=- CDDA (99%)
174954196
 
II
AUDIOCHECKER v2.0 beta (build 457) - by Dester - opdester@freemail.hu
~~~~~~~~~~~~~~~~~~~~~~~~~~~~~~~~~~
-=== DO NOT EDIT THIS FILE! ===-
Path: ...\disc 2
1 -=- 01 - Duo 2.flac -=- CDDA (100%)
2 -=- 02 - Duo 3.flac -=- CDDA (100%)
Summary 100.00% CDDA
166571604
По всем вопросам пишите личное сообщение пользователю M0p94ok.
22:53
233
Нет комментариев. Ваш будет первым!